<?xml version="1.0" encoding="UTF-8" standalone="no"?>
<!DOCTYPE svg  PUBLIC '-//W3C//DTD SVG 1.1//EN'  'http://www.w3.org/Graphics/SVG/1.1/DTD/svg11.dtd'>
<svg version="1.1" xmlns="http://www.w3.org/2000/svg">
<defs>
<font id="Gotham-Light" horiz-adv-x="790">
<font-face underline-position="-150" units-per-em="1000" font-weight="300" font-family="Gotham Light" cap-height="700" unicode-range="U+0020-FB04" panose-1="0 0 0 0 0 0 0 0 0 0" x-height="510" underline-thickness="50" bbox="-18 -163 1052 893" ascent="800" descent="-200"/>
<missing-glyph/>
<glyph horiz-adv-x="300" unicode=" " glyph-name="space"/>
<glyph horiz-adv-x="252" d="M93 0v85h66v-85h-66zM112 183l-15 447v70h58v-70l-15 -447h-28z" unicode="!" glyph-name="exclam"/>
<glyph horiz-adv-x="410" d="M68 446l35 254h65v-5l-71 -249h-29zM248 446l35 254h65v-5l-71 -249h-29z" unicode='&quot;' glyph-name="quotedbl"/>
<glyph horiz-adv-x="700" d="M266 470l-40 -236h207l40 236h-207zM610 234v-47h-137l-32 -187h-48l32 187h-207l-32 -187h-48l32 187h-121v47h129l40 236h-129v47h137l32 183h48l-31 -183h207l31 183h48l-32 -183h121v-47h-129l-40 -236h129z" unicode="#" glyph-name="numbersign"/>
<glyph horiz-adv-x="632" d="M138 523q0 -54 33.5 -86t127.5 -55v273q-72 -1 -116.5 -39t-44.5 -93zM508 181q0 54 -35 86t-130 54v-276q74 1 119.5 39.5t45.5 96.5zM538 616l-33 -39q-76 66 -162 76v-281q114 -24 165 -68.5t51 -118.5q0 -79 -60 -130.5t-154 -54.5v-98h-48v99q-129 11 -237 107 l33 39q95 -90 206 -101v285q-112 25 -162 69t-50 119q0 76 59.5 127.5t150.5 53.5v58h48v-60q102 -9 193 -82z" unicode="$" glyph-name="dollar"/>
<glyph horiz-adv-x="824" d="M616 35q44 0 72.5 38.5t28.5 95.5v2q0 58 -30 97t-73 39q-44 0 -72.5 -39t-28.5 -95v-2q0 -58 30 -97t73 -39zM614 -8q-67 0 -110 52.5t-43 124.5v2q0 73 43.5 126t111.5 53q67 0 110 -52.5t43 -124.5v-2q0 -73 -43.5 -126t-111.5 -53zM393 360l249 340h54l-267 -363 l-247 -337h-54zM208 665q-44 0 -72.5 -39t-28.5 -95v-2q0 -58 30 -97t73 -39q44 0 72.5 38.5t28.5 95.5v2q0 58 -30 97t-73 39zM208 350q-67 0 -110 52.5t-43 124.5v2q0 73 43.5 126t111.5 53q67 0 110 -52.5t43 -124.5v-2q0 -73 -43.5 -126t-111.5 -53z" unicode="%" glyph-name="percent"/>
<glyph horiz-adv-x="696" d="M265 35q109 0 203 110l-207 214q-80 -27 -120 -72.5t-40 -98.5v-2q0 -64 46.5 -107.5t117.5 -43.5zM285 409q151 48 151 147v2q0 47 -32 78.5t-79 31.5q-53 0 -87 -32.5t-34 -80.5v-2q0 -33 17.5 -64t63.5 -80zM622 -14l-121 125q-104 -121 -237 -121q-93 0 -154 54.5 t-61 139.5v2q0 138 181 205q-42 46 -60 82t-18 78v2q0 68 49.5 113.5t125.5 45.5q68 0 114.5 -44.5t46.5 -107.5v-2q0 -122 -172 -181l184 -189q48 67 91 170l47 -19q-51 -115 -104 -186l129 -133z" unicode="&amp;" glyph-name="ampersand"/>
<glyph horiz-adv-x="230" d="M68 446l35 254h65v-5l-71 -249h-29z" unicode="&apos;" glyph-name="quotesingle"/>
<glyph horiz-adv-x="430" d="M348 -141q-134 76 -205.5 185t-71.5 243t71.5 243t205.5 185l21 -33q-246 -151 -246 -395t246 -395z" unicode="(" glyph-name="parenleft"/>
<glyph horiz-adv-x="430" d="M82 -141l-21 33q246 151 246 395t-246 395l21 33q134 -76 205.5 -185t71.5 -243t-71.5 -243t-205.5 -185z" unicode=")" glyph-name="parenright"/>
<glyph horiz-adv-x="430" d="M194 406l9 127l-106 -72l-22 37l118 56l-118 56l22 37l106 -72l-9 127h42l-9 -127l106 72l22 -37l-118 -56l118 -56l-22 -37l-106 72l9 -127h-42z" unicode="*" glyph-name="asterisk"/>
<glyph horiz-adv-x="620" d="M285 113v215h-217v48h217v215h50v-215h217v-48h-217v-215h-50z" unicode="+" glyph-name="plus"/>
<glyph horiz-adv-x="230" d="M65 -107l-12 25q56 28 56 73v9h-27v85h66v-74q0 -47 -19 -74t-64 -44z" unicode="," glyph-name="comma"/>
<glyph horiz-adv-x="408" d="M70 269v56h268v-56h-268z" unicode="-" glyph-name="hyphen"/>
<glyph horiz-adv-x="230" d="M82 0v85h66v-85h-66z" unicode="." glyph-name="period"/>
<glyph horiz-adv-x="500" d="M-18 -128l472 926h49l-472 -926h-49z" unicode="/" glyph-name="slash"/>
<glyph horiz-adv-x="710" d="M356 35q105 0 170 93t65 220v2q0 128 -66 221.5t-171 93.5t-170 -92.5t-65 -220.5v-2q0 -127 66 -221t171 -94zM354 -12q-130 0 -209.5 105t-79.5 255v2q0 97 35 179t102.5 132.5t153.5 50.5q130 0 209.5 -105t79.5 -255v-2q0 -97 -35 -179t-102.5 -132.5t-153.5 -50.5z " unicode="0" glyph-name="zero"/>
<glyph horiz-adv-x="335" d="M179 0v651l-135 -46l-14 41l160 59h40v-705h-51z" unicode="1" glyph-name="one"/>
<glyph horiz-adv-x="590" d="M48 0v39l261 236q87 79 121 131.5t34 107.5q0 66 -46.5 108t-111.5 42q-64 0 -111.5 -32t-93.5 -98l-39 26q50 76 106 113t143 37q89 0 148.5 -55t59.5 -137v-2q0 -69 -38.5 -126t-136.5 -146l-214 -194h396v-50h-478z" unicode="2" glyph-name="two"/>
<glyph horiz-adv-x="610" d="M311 -12q-160 0 -257 126l40 33q88 -112 218 -112q72 0 122.5 43.5t50.5 111.5v2q0 72 -60.5 112t-157.5 40h-38l-13 29l241 278h-367v49h438v-37l-237 -271q108 -6 178 -56.5t70 -141.5v-2q0 -89 -67.5 -146.5t-160.5 -57.5z" unicode="3" glyph-name="three"/>
<glyph horiz-adv-x="664" d="M111 216h334v414zM445 0v171h-379l-18 39l400 495h47v-489h114v-45h-114v-171h-50z" unicode="4" glyph-name="four"/>
<glyph horiz-adv-x="605" d="M302 -12q-68 0 -132 31.5t-113 81.5l37 37q103 -103 210 -103q82 0 135 50.5t53 125.5v2q0 73 -53.5 119.5t-138.5 46.5q-77 0 -158 -44l-40 26l20 339h393v-50h-347l-17 -262q78 38 155 38q103 0 171.5 -59t68.5 -152v-2q0 -99 -69 -162t-175 -63z" unicode="5" glyph-name="five"/>
<glyph horiz-adv-x="642" d="M335 35q83 0 135 52.5t52 128.5v2q0 72 -53.5 120t-136.5 48t-139 -53t-56 -120v-2q0 -75 56.5 -125.5t141.5 -50.5zM331 -12q-108 0 -178 70q-46 46 -67.5 107.5t-21.5 165.5v2q0 162 78.5 270.5t206.5 108.5q103 0 202 -81l-33 -40q-83 74 -173 74q-104 0 -166.5 -96.5 t-62.5 -246.5v-20q77 130 219 130q98 0 169.5 -60.5t71.5 -151.5v-2q0 -99 -70.5 -164.5t-174.5 -65.5z" unicode="6" glyph-name="six"/>
<glyph horiz-adv-x="587" d="M156 0l318 650h-406v50h464v-38l-319 -662h-57z" unicode="7" glyph-name="seven"/>
<glyph horiz-adv-x="630" d="M315 37q94 0 150 43t56 105v2q0 65 -60 107.5t-146 42.5t-146 -42.5t-60 -107.5v-2q0 -62 56 -105t150 -43zM315 381q76 0 129 40.5t53 103.5v2q0 59 -52.5 97.5t-129.5 38.5t-129.5 -38.5t-52.5 -97.5v-2q0 -63 53 -103.5t129 -40.5zM315 -10q-111 0 -185.5 55.5 t-74.5 141.5v2q0 59 43 104.5t112 68.5q-131 53 -131 163v2q0 79 71 131t165 52t165 -52t71 -131v-2q0 -110 -131 -163q69 -23 112 -68.5t43 -104.5v-2q0 -86 -74.5 -141.5t-185.5 -55.5z" unicode="8" glyph-name="eight"/>
<glyph horiz-adv-x="642" d="M310 307q85 0 140 54t55 124v2q0 75 -56.5 126.5t-142.5 51.5q-83 0 -134.5 -55t-51.5 -131v-2q0 -74 53.5 -122t136.5 -48zM294 35q103 0 167.5 95.5t64.5 237.5v27q-77 -134 -218 -134q-105 0 -173.5 61.5t-68.5 152.5v2q0 99 69 167t177 68q107 0 178 -71 q88 -88 88 -273v-2q0 -164 -81 -271t-204 -107q-108 0 -211 87l33 40q89 -80 179 -80z" unicode="9" glyph-name="nine"/>
<glyph horiz-adv-x="240" d="M87 0v85h66v-85h-66zM87 425v85h66v-85h-66z" unicode=":" glyph-name="colon"/>
<glyph horiz-adv-x="240" d="M70 -107l-12 25q56 28 56 73v9h-27v85h66v-74q0 -47 -19 -74t-64 -44zM87 425v85h66v-85h-66z" unicode=";" glyph-name="semicolon"/>
<glyph horiz-adv-x="620" d="M527 91l-464 241v40l464 241v-54l-403 -206l403 -208v-54z" unicode="&lt;" glyph-name="less"/>
<glyph horiz-adv-x="620" d="M83 214v51h454v-51h-454zM83 439v51h454v-51h-454z" unicode="=" glyph-name="equal"/>
<glyph horiz-adv-x="620" d="M93 91v54l403 206l-403 208v54l464 -241v-40z" unicode="&gt;" glyph-name="greater"/>
<glyph horiz-adv-x="534" d="M212 0v85h66v-85h-66zM229 183l-13 162l5 5q98 2 153 45t55 115v2q0 63 -46 107t-120 44q-109 0 -193 -103l-36 30q46 58 101 88.5t130 30.5q97 0 157 -56.5t60 -138.5v-2q0 -88 -59.5 -140.5t-152.5 -63.5l-9 -125h-32z" unicode="?" glyph-name="question"/>
<glyph horiz-adv-x="980" d="M446 120q66 0 119 53q61 61 61 140q0 59 -37.5 99t-94.5 40q-68 0 -122 -54q-59 -59 -59 -143q0 -63 36.5 -99t96.5 -36zM499 -162q-190 0 -318 127.5t-128 308.5q0 180 127.5 309t310.5 129q182 0 309 -118t127 -278q0 -119 -55 -181t-127 -62q-52 0 -87.5 25t-48.5 68 q-75 -93 -171 -93q-74 0 -125.5 50t-51.5 128q0 103 72.5 176t160.5 73q102 0 149 -89l14 75l48 -6l-37 -211q-9 -52 -9 -72q0 -43 23.5 -65.5t66.5 -22.5q58 0 101 53t43 154q0 91 -51.5 174.5t-145.5 136.5t-205 53q-172 0 -288 -118.5t-116 -287.5q0 -170 116.5 -287 t295.5 -117q134 0 250 68l15 -25q-123 -75 -265 -75z" unicode="@" glyph-name="at"/>
<glyph d="M209 243h369l-184 405zM44 0l326 705h50l326 -705h-57l-89 196h-413l-89 -196h-54z" unicode="A" glyph-name="A"/>
<glyph horiz-adv-x="722" d="M606 193q0 65 -55 100.5t-158 35.5h-237v-281h254q90 0 143 38.5t53 104.5v2zM567 521v2q0 59 -46 94t-129 35h-236v-275h231q81 0 130.5 38t49.5 106zM104 0v700h289q120 0 182 -62q45 -45 45 -110v-2q0 -118 -119 -166q158 -41 158 -167v-2q0 -87 -68.5 -139 t-182.5 -52h-304z" unicode="B" glyph-name="B"/>
<glyph horiz-adv-x="738" d="M421 -12q-149 0 -248.5 104t-99.5 256v2q0 150 100 256t250 106q87 0 149.5 -28.5t122.5 -83.5l-37 -38q-106 103 -236 103q-126 0 -210.5 -90.5t-84.5 -222.5v-2q0 -133 85.5 -224t210.5 -91q73 0 129 27t112 82l35 -34q-61 -60 -126 -91t-152 -31z" unicode="C" glyph-name="C"/>
<glyph horiz-adv-x="782" d="M337 652h-181v-604h181q143 0 230.5 86t87.5 214v2q0 128 -87.5 215t-230.5 87zM104 0v700h233q163 0 267.5 -99.5t104.5 -248.5v-2q0 -150 -104.5 -250t-267.5 -100h-233z" unicode="D" glyph-name="D"/>
<glyph horiz-adv-x="670" d="M104 0v700h498v-48h-446v-275h401v-48h-401v-281h451v-48h-503z" unicode="E" glyph-name="E"/>
<glyph horiz-adv-x="656" d="M104 0v700h493v-48h-441v-287h396v-48h-396v-317h-52z" unicode="F" glyph-name="F"/>
<glyph horiz-adv-x="784" d="M425 -12q-161 0 -256.5 103.5t-95.5 256.5v2q0 147 97 254.5t249 107.5q81 0 140.5 -23t115.5 -69l-34 -39q-96 84 -225 84q-125 0 -207 -92t-82 -221v-2q0 -139 81 -227.5t219 -88.5q63 0 122.5 22.5t100.5 57.5v201h-234v48h284v-270q-52 -46 -123.5 -75.5 t-151.5 -29.5z" unicode="G" glyph-name="G"/>
<glyph horiz-adv-x="760" d="M104 0v700h52v-324h448v324h52v-700h-52v328h-448v-328h-52z" unicode="H" glyph-name="H"/>
<glyph horiz-adv-x="274" d="M111 0v700h52v-700h-52z" unicode="I" glyph-name="I"/>
<glyph horiz-adv-x="549" d="M249 -10q-139 0 -212 131l43 27q34 -57 73.5 -84t98.5 -27q67 0 109.5 49t42.5 138v476h52v-472q0 -118 -64 -182q-56 -56 -143 -56z" unicode="J" glyph-name="J"/>
<glyph horiz-adv-x="715" d="M104 0v700h52v-460l446 460h71l-306 -309l319 -391h-68l-288 354l-174 -176v-178h-52z" unicode="K" glyph-name="K"/>
<glyph horiz-adv-x="619" d="M104 0v700h52v-652h411v-48h-463z" unicode="L" glyph-name="L"/>
<glyph horiz-adv-x="868" d="M104 0v700h49l281 -414l281 414h49v-700h-52v608l-277 -403h-4l-277 403v-608h-50z" unicode="M" glyph-name="M"/>
<glyph d="M104 0v700h49l483 -609v609h50v-700h-39l-493 622v-622h-50z" unicode="N" glyph-name="N"/>
<glyph horiz-adv-x="850" d="M426 35q128 0 212.5 91t84.5 222v2q0 131 -85.5 223t-213.5 92t-212.5 -91t-84.5 -222v-2q0 -131 85.5 -223t213.5 -92zM424 -12q-155 0 -253 106t-98 254v2q0 148 99 255t254 107t253 -106t98 -254v-2q0 -148 -99 -255t-254 -107z" unicode="O" glyph-name="O"/>
<glyph horiz-adv-x="668" d="M156 309h192q98 0 158 47t60 125v2q0 81 -57.5 125t-154.5 44h-198v-343zM104 0v700h254q117 0 188.5 -57t71.5 -157v-2q0 -106 -78.5 -164.5t-194.5 -58.5h-189v-261h-52z" unicode="P" glyph-name="P"/>
<glyph horiz-adv-x="850" d="M426 35q107 0 186 66l-136 116l37 41l134 -122q76 87 76 212v2q0 131 -85.5 223t-213.5 92t-212.5 -91t-84.5 -222v-2q0 -131 85.5 -223t213.5 -92zM785 19l-37 -40l-99 89q-94 -80 -225 -80q-155 0 -253 106t-98 254v2q0 148 99 255t254 107t253 -106t98 -254v-2 q0 -144 -92 -247z" unicode="Q" glyph-name="Q"/>
<glyph horiz-adv-x="723" d="M156 337h236q90 0 147 43t57 117v2q0 71 -53 112t-148 41h-239v-315zM104 0v700h294q128 0 197 -69q53 -53 53 -130v-2q0 -85 -56 -136t-149 -64l231 -299h-66l-223 290h-229v-290h-52z" unicode="R" glyph-name="R"/>
<glyph horiz-adv-x="640" d="M341 -10q-157 0 -282 112l34 39q59 -55 117 -79.5t134 -24.5q78 0 127.5 39.5t49.5 99.5v2q0 58 -41.5 92t-156.5 57q-126 25 -181 71t-55 126v2q0 78 64 131t161 53q74 0 129.5 -20.5t110.5 -64.5l-33 -41q-91 79 -209 79q-76 0 -123.5 -38t-47.5 -94v-2q0 -59 42.5 -94 t161.5 -59q121 -25 175.5 -70.5t54.5 -122.5v-2q0 -84 -65 -137.5t-167 -53.5z" unicode="S" glyph-name="S"/>
<glyph horiz-adv-x="648" d="M298 0v652h-244v48h540v-48h-244v-652h-52z" unicode="T" glyph-name="T"/>
<glyph horiz-adv-x="760" d="M380 -11q-129 0 -208 79t-79 223v409h52v-404q0 -123 63 -191.5t174 -68.5q109 0 171 65.5t62 189.5v409h52v-403q0 -147 -78 -227.5t-209 -80.5z" unicode="U" glyph-name="U"/>
<glyph horiz-adv-x="750" d="M352 -5l-308 705h58l274 -644l275 644h55l-308 -705h-46z" unicode="V" glyph-name="V"/>
<glyph horiz-adv-x="1102" d="M304 -5l-254 705h58l220 -623l205 625h40l205 -625l220 623h54l-254 -705h-42l-205 608l-205 -608h-42z" unicode="W" glyph-name="W"/>
<glyph horiz-adv-x="722" d="M600 700h61l-269 -343l279 -357h-62l-249 323l-248 -323h-61l278 357l-268 343h62l239 -309z" unicode="X" glyph-name="X"/>
<glyph horiz-adv-x="716" d="M332 0v277l-300 423h65l262 -376l263 376h62l-300 -422v-278h-52z" unicode="Y" glyph-name="Y"/>
<glyph horiz-adv-x="688" d="M68 0v29l479 624h-462v47h536v-29l-479 -624h479v-47h-553z" unicode="Z" glyph-name="Z"/>
<glyph horiz-adv-x="430" d="M98 -130v830h273v-38h-227v-754h227v-38h-273z" unicode="[" glyph-name="bracketleft"/>
<glyph horiz-adv-x="500" d="M469 -128l-472 926h49l472 -926h-49z" unicode="\" glyph-name="backslash"/>
<glyph horiz-adv-x="430" d="M59 -130v38h227v754h-227v38h273v-830h-273z" unicode="]" glyph-name="bracketright"/>
<glyph horiz-adv-x="500" d="M70 493l158 210h44l158 -210h-53l-128 167l-128 -167h-51z" unicode="^" glyph-name="asciicircum"/>
<glyph horiz-adv-x="600" d="M-2 -160v44h604v-44h-604z" unicode="_" glyph-name="underscore"/>
<glyph horiz-adv-x="500" d="M264 595l-107 103l61 30l88 -133h-42z" unicode="`" glyph-name="grave"/>
<glyph horiz-adv-x="574" d="M251 34q80 0 136.5 44.5t56.5 112.5v58q-90 23 -173 23q-80 0 -124 -32.5t-44 -86.5v-2q0 -53 43.5 -85t104.5 -32zM248 -12q-78 0 -137.5 42.5t-59.5 117.5v2q0 78 61 122t162 44q86 0 169 -22v22q0 76 -44 116t-124 40t-160 -41l-18 43q95 44 181 44q105 0 161 -56 q52 -52 52 -144v-318h-48v85q-69 -97 -195 -97z" unicode="a" glyph-name="a"/>
<glyph horiz-adv-x="660" d="M347 35q86 0 143 59t57 159v2q0 98 -58.5 159t-141.5 61t-145.5 -62.5t-62.5 -156.5v-2q0 -95 62.5 -157t145.5 -62zM352 -12q-130 0 -210 122v-110h-49v730h49v-334q83 126 210 126q98 0 173 -73t75 -192v-2q0 -119 -75 -193t-173 -74z" unicode="b" glyph-name="b"/>
<glyph horiz-adv-x="571" d="M318 -12q-109 0 -184.5 78.5t-75.5 186.5v2q0 108 76 187.5t184 79.5q114 0 204 -94l-35 -36q-82 84 -170 84q-87 0 -146.5 -63.5t-59.5 -155.5v-2q0 -92 61 -156.5t149 -64.5q95 0 171 85l34 -30q-89 -101 -208 -101z" unicode="c" glyph-name="c"/>
<glyph horiz-adv-x="660" d="M313 35q83 0 145.5 62.5t62.5 156.5v2q0 95 -62.5 157t-145.5 62q-86 0 -143 -59t-57 -159v-2q0 -98 58.5 -159t141.5 -61zM308 -12q-98 0 -173 73t-75 192v2q0 119 75 193t173 74q130 0 210 -122v330h49v-730h-49v114q-83 -126 -210 -126z" unicode="d" glyph-name="d"/>
<glyph horiz-adv-x="584" d="M110 279h371q-6 84 -53 141t-130 57q-75 0 -128 -56.5t-60 -141.5zM308 -12q-103 0 -176.5 75t-73.5 191v2q0 112 69.5 189t172.5 77q105 0 169.5 -76t64.5 -191q0 -12 -1 -20h-423q7 -92 64.5 -146.5t135.5 -54.5q100 0 175 80l34 -30q-89 -96 -211 -96z" unicode="e" glyph-name="e"/>
<glyph horiz-adv-x="362" d="M123 0v465h-74v45h74v50q0 88 45 133q40 40 107 40q41 0 76 -12v-46q-42 13 -76 13q-103 0 -103 -129v-49h178v-45h-178v-465h-49z" unicode="f" glyph-name="f"/>
<glyph horiz-adv-x="660" d="M310 85q83 0 147 55t64 139v2q0 85 -63.5 139.5t-147.5 54.5q-83 0 -140 -53t-57 -140v-2q0 -84 58 -139.5t139 -55.5zM317 -162q-129 0 -234 78l29 40q93 -72 206 -72q91 0 145.5 51t54.5 147v74q-82 -118 -213 -118q-97 0 -171 67.5t-74 172.5v2q0 106 74 174t171 68 q133 0 213 -114v102h49v-431q0 -108 -65 -173q-68 -68 -185 -68z" unicode="g" glyph-name="g"/>
<glyph horiz-adv-x="613" d="M93 0v730h49v-315q61 107 184 107q95 0 149.5 -58.5t54.5 -151.5v-312h-49v303q0 80 -43 127t-119 47t-126.5 -51.5t-50.5 -130.5v-295h-49z" unicode="h" glyph-name="h"/>
<glyph horiz-adv-x="249" d="M100 0v510h49v-510h-49zM94 643v67h61v-67h-61z" unicode="i" glyph-name="i"/>
<glyph horiz-adv-x="249" d="M40 -163q-21 0 -41 4v43q18 -3 40 -3q28 0 44.5 18t16.5 53v558h49v-555q0 -58 -29 -88t-80 -30zM94 643v67h61v-67h-61z" unicode="j" glyph-name="j"/>
<glyph horiz-adv-x="560" d="M93 0v730h49v-547l316 327h65l-223 -226l230 -284h-62l-202 249l-124 -125v-124h-49z" unicode="k" glyph-name="k"/>
<glyph horiz-adv-x="249" d="M100 0v730h49v-730h-49z" unicode="l" glyph-name="l"/>
<glyph horiz-adv-x="951" d="M93 0v510h49v-91q30 48 69 75.5t101 27.5q120 0 172 -110q64 110 184 110q90 0 143 -58t53 -155v-309h-49v303q0 82 -40 128t-111 46q-67 0 -114 -49t-47 -131v-297h-49v306q0 79 -40.5 125t-108.5 46t-115.5 -53t-47.5 -130v-294h-49z" unicode="m" glyph-name="m"/>
<glyph horiz-adv-x="613" d="M93 0v510h49v-95q61 107 184 107q95 0 149.5 -58.5t54.5 -151.5v-312h-49v303q0 80 -43 127t-119 47t-126.5 -51.5t-50.5 -130.5v-295h-49z" unicode="n" glyph-name="n"/>
<glyph horiz-adv-x="640" d="M321 34q90 0 149 64t59 155v2q0 92 -61 156.5t-149 64.5q-90 0 -149 -64t-59 -155v-2q0 -92 61 -156.5t149 -64.5zM319 -12q-112 0 -186.5 78t-74.5 187v2q0 109 75.5 188t187.5 79t186.5 -78t74.5 -187v-2q0 -109 -75.5 -188t-187.5 -79z" unicode="o" glyph-name="o"/>
<glyph horiz-adv-x="660" d="M347 35q86 0 143 59t57 159v2q0 98 -58.5 159t-141.5 61t-145.5 -62.5t-62.5 -156.5v-2q0 -95 62.5 -157t145.5 -62zM93 -160v670h49v-114q83 126 210 126q98 0 173 -73t75 -192v-2q0 -119 -75 -193t-173 -74q-130 0 -210 122v-270h-49z" unicode="p" glyph-name="p"/>
<glyph horiz-adv-x="660" d="M313 35q83 0 145.5 62.5t62.5 156.5v2q0 95 -62.5 157t-145.5 62q-86 0 -143 -59t-57 -159v-2q0 -98 58.5 -159t141.5 -61zM518 -160v274q-83 -126 -210 -126q-98 0 -173 73t-75 192v2q0 119 75 193t173 74q130 0 210 -122v110h49v-670h-49z" unicode="q" glyph-name="q"/>
<glyph horiz-adv-x="400" d="M93 0v510h49v-145q30 68 88 110.5t129 42.5h9v-54h-5q-93 0 -157 -68t-64 -187v-209h-49z" unicode="r" glyph-name="r"/>
<glyph horiz-adv-x="497" d="M258 -10q-55 0 -111.5 20.5t-97.5 53.5l29 39q87 -67 183 -67q53 0 88 27t35 70v2q0 41 -34.5 62t-100.5 40q-35 10 -51 15t-45 18t-42.5 25.5t-25 34t-11.5 47.5v2q0 62 47 101.5t121 39.5q97 0 181 -56l-26 -41q-77 51 -157 51q-52 0 -84 -25t-32 -64v-2q0 -16 8.5 -30 t20 -23t33 -18.5t37 -14.5t43.5 -13q38 -11 62 -20t51.5 -25.5t41 -41t13.5 -56.5v-2q0 -67 -50.5 -108t-125.5 -41z" unicode="s" glyph-name="s"/>
<glyph horiz-adv-x="400" d="M263 -9q-63 0 -103 35.5t-40 104.5v334h-74v45h74v163h49v-163h179v-45h-179v-329q0 -99 102 -99q35 0 75 18v-46q-39 -18 -83 -18z" unicode="t" glyph-name="t"/>
<glyph horiz-adv-x="613" d="M287 -12q-95 0 -149.5 58.5t-54.5 151.5v312h49v-303q0 -80 43 -127t119 -47t126.5 51.5t50.5 130.5v295h49v-510h-49v95q-61 -107 -184 -107z" unicode="u" glyph-name="u"/>
<glyph horiz-adv-x="582" d="M270 -4l-229 514h57l193 -455l195 455h55l-229 -514h-42z" unicode="v" glyph-name="v"/>
<glyph horiz-adv-x="861" d="M236 -4l-187 514h55l154 -448l154 450h39l154 -450l154 448h53l-187 -514h-42l-152 437l-153 -437h-42z" unicode="w" glyph-name="w"/>
<glyph horiz-adv-x="570" d="M114 510l171 -216l173 216h59l-201 -249l209 -261h-61l-180 227l-180 -227h-59l208 260l-200 250h61z" unicode="x" glyph-name="x"/>
<glyph horiz-adv-x="588" d="M308 54l184 456h54l-221 -528q-33 -78 -73.5 -111.5t-96.5 -33.5q-51 0 -101 22l17 43q39 -19 87 -19q40 0 69 27t57 93l-245 507h57z" unicode="y" glyph-name="y"/>
<glyph horiz-adv-x="554" d="M58 0v28l368 438h-354v44h427v-28l-368 -438h368v-44h-441z" unicode="z" glyph-name="z"/>
<glyph horiz-adv-x="480" d="M416 -141q-66 12 -108.5 30.5t-64.5 45t-30 56t-8 71.5v79q0 63 -26.5 95t-93.5 32h-26v38h26q67 0 93.5 32t26.5 95v79q0 42 8 71.5t30 56t64.5 45t108.5 30.5l7 -32q-58 -15 -91 -29.5t-50.5 -36.5t-22.5 -45.5t-5 -65.5v-75q0 -63 -26.5 -96t-77.5 -48 q54 -18 79 -49.5t25 -94.5v-75q0 -42 5 -65.5t22.5 -45.5t50.5 -36.5t91 -29.5z" unicode="{" glyph-name="braceleft"/>
<glyph horiz-adv-x="286" d="M121 -128v926h44v-926h-44z" unicode="|" glyph-name="bar"/>
<glyph horiz-adv-x="480" d="M64 -141l-7 32q58 15 91 29.5t50.5 36.5t22.5 45.5t5 65.5v75q0 63 26.5 96t77.5 48q-54 18 -79 49.5t-25 94.5v75q0 42 -5 65.5t-22.5 45.5t-50.5 36.5t-91 29.5l7 32q66 -12 108.5 -30.5t64.5 -45t30 -56t8 -71.5v-79q0 -63 26.5 -95t93.5 -32h26v-38h-26 q-67 0 -93.5 -32t-26.5 -95v-79q0 -42 -8 -71.5t-30 -56t-64.5 -45t-108.5 -30.5z" unicode="}" glyph-name="braceright"/>
<glyph horiz-adv-x="460" d="M294 251q-20 0 -65 20q-46 21 -63 21q-18 0 -28.5 -10.5t-21.5 -39.5l-34 9q14 52 33.5 72.5t50.5 20.5q20 0 65 -20q46 -21 63 -21q18 0 28.5 10.5t21.5 39.5l34 -9q-14 -52 -33.5 -72.5t-50.5 -20.5z" unicode="~" glyph-name="asciitilde"/>
<glyph horiz-adv-x="300" unicode=" " glyph-name="uni00A0"/>
<glyph horiz-adv-x="252" d="M97 0v70l15 447h28l15 -447v-70h-58zM93 615v85h66v-85h-66z" unicode="¡" glyph-name="exclamdown"/>
<glyph horiz-adv-x="581" d="M115 355q0 -70 36 -125.5t95 -79.5l84 426h-9q-87 0 -146.5 -63.5t-59.5 -155.5v-2zM403 706l-18 -91q76 -19 141 -87l-35 -36q-61 63 -117 77l-85 -432q17 -3 36 -3q95 0 171 85l34 -30q-89 -101 -208 -101q-21 0 -39 3l-19 -97h-50l21 109q-77 27 -125 96t-48 154v2 q0 108 76 187.5t184 79.5h14l17 84h50z" unicode="¢" glyph-name="cent"/>
<glyph horiz-adv-x="644" d="M70 0v25l86 20v260h-86v48h86v118q0 116 65 181q58 58 150 58q129 0 210 -106l-40 -31q-35 44 -74 67t-97 23q-70 0 -113 -43q-50 -50 -50 -148v-119h298v-48h-298v-258h374v-47h-511z" unicode="£" glyph-name="sterling"/>
<glyph horiz-adv-x="686" d="M105 268v45h195l-268 387h63l249 -373l250 373h60l-269 -387h196v-45h-213v-98h213v-45h-213v-125h-50v125h-213v45h213v98h-213z" unicode="¥" glyph-name="yen"/>
<glyph horiz-adv-x="632" d="M386 253q57 0 93 23.5t36 54.5v2q0 29 -34.5 52.5t-122.5 45.5q-64 16 -112 16q-57 0 -93 -23.5t-36 -54.5v-2q0 -29 34.5 -52.5t122.5 -45.5q63 -16 112 -16zM419 222q86 -38 86 -105v-2q0 -56 -48.5 -90.5t-127.5 -34.5q-65 0 -124.5 26t-102.5 69l38 36 q80 -82 194 -82q57 0 86.5 21.5t29.5 55.5v2q0 33 -41 57.5t-142 48.5q-111 27 -156.5 58.5t-45.5 80.5v2q0 44 40 74.5t108 38.5q-86 38 -86 105v2q0 56 48.5 90.5t127.5 34.5q65 0 124.5 -26t102.5 -69l-38 -36q-80 82 -194 82q-57 0 -86.5 -21.5t-29.5 -55.5v-2 q0 -33 41 -57.5t142 -48.5q111 -27 156.5 -58.5t45.5 -80.5v-2q0 -44 -40 -74.5t-108 -38.5z" unicode="§" glyph-name="section"/>
<glyph horiz-adv-x="500" d="M134 595v80h69v-80h-69zM297 595v80h69v-80h-69z" unicode="¨" glyph-name="dieresis"/>
<glyph horiz-adv-x="830" d="M419 166q-77 0 -129.5 55t-52.5 133v2q0 77 53 133t130 56t141 -61l-30 -31q-54 52 -112 52q-59 0 -98.5 -43.5t-39.5 -104.5v-2q0 -61 40.5 -105t98.5 -44q60 0 115 52l28 -28q-66 -64 -144 -64zM414 16q141 0 237 97.5t96 236.5v2q0 138 -95 235t-236 97t-237 -97.5 t-96 -236.5v-2q0 -138 95 -235t236 -97zM414 -12q-151 0 -256 105.5t-105 254.5v2q0 149 106 255.5t257 106.5t256 -105.5t105 -254.5v-2q0 -149 -106 -255.5t-257 -106.5z" unicode="©" glyph-name="copyright"/>
<glyph horiz-adv-x="390" d="M62 293v40h252v-40h-252zM176 447q39 0 67.5 21.5t28.5 55.5v27q-36 11 -85 11q-38 0 -60 -16t-22 -41v-2q0 -26 20.5 -41t50.5 -15zM174 411q-43 0 -76 24t-33 66v2q0 43 34 68t90 25q41 0 83 -11v5q0 38 -22 57.5t-61 19.5q-37 0 -88 -24l-13 34q55 26 103 26 q58 0 90 -32q28 -28 28 -80v-174h-37v41q-36 -47 -98 -47z" unicode="ª" glyph-name="ordfeminine"/>
<glyph horiz-adv-x="515" d="M211 42l-160 209v8l160 209l37 -24l-137 -188l137 -190zM415 42l-160 209v8l160 209l37 -24l-137 -188l137 -190z" unicode="«" glyph-name="guillemotleft"/>
<glyph horiz-adv-x="416" d="M171 538h47q39 0 39 32q0 31 -39 31h-47v-63zM143 451v175h78q28 0 46.5 -14.5t18.5 -39.5q0 -40 -43 -53l49 -68h-35l-44 64h-42v-64h-28zM208 379q65 0 109.5 46t44.5 110v1q0 64 -44.5 109.5t-109.5 45.5t-109.5 -46t-44.5 -110v-1q0 -64 44.5 -109.5t109.5 -45.5z M208 360q-73 0 -123.5 51t-50.5 123v1q0 72 51 123.5t123 51.5q73 0 123.5 -51t50.5 -123v-1q0 -72 -51 -123.5t-123 -51.5z" unicode="®" glyph-name="registered"/>
<glyph horiz-adv-x="500" d="M103 621v47h294v-47h-294z" unicode="¯" glyph-name="macron"/>
<glyph horiz-adv-x="450" d="M225 456q43 0 72 30.5t29 71.5v2q0 41 -29 71.5t-72 30.5t-72 -30.5t-29 -71.5v-2q0 -41 29 -71.5t72 -30.5zM225 412q-60 0 -105.5 44t-45.5 102v2q0 58 45.5 102t105.5 44t105.5 -44t45.5 -102v-2q0 -58 -45.5 -102t-105.5 -44z" unicode="°" glyph-name="degree"/>
<glyph horiz-adv-x="620" d="M542 0h-464v48h464v-48zM542 358h-207v-203h-50v203h-207v48h207v203h50v-203h207v-48z" unicode="±" glyph-name="plusminus"/>
<glyph horiz-adv-x="400" d="M61 426v33l149 132q43 38 61.5 64.5t18.5 56.5q0 32 -23.5 53.5t-58.5 21.5q-64 0 -110 -72l-30 18q55 89 143 89q50 0 84.5 -31.5t34.5 -76.5q0 -39 -21 -69.5t-72 -75.5l-122 -106h219v-37h-273z" unicode="²" glyph-name="two.sup"/>
<glyph horiz-adv-x="400" d="M198 416q-89 0 -143 74l29 24q46 -63 115 -63q37 0 63 23t26 58q0 37 -31.5 58.5t-80.5 21.5h-28l-8 24l133 139h-198v37h248v-32l-128 -134q59 -5 96 -34t37 -80q0 -50 -38.5 -83t-91.5 -33z" unicode="³" glyph-name="three.sup"/>
<glyph horiz-adv-x="500" d="M194 595l88 133l61 -30l-107 -103h-42z" unicode="´" glyph-name="acute"/>
<glyph horiz-adv-x="480" d="M333 0v277h-6q-119 0 -196.5 56.5t-77.5 154.5v2q0 97 72 153.5t187 56.5h74v-700h-53z" unicode="¶" glyph-name="paragraph"/>
<glyph horiz-adv-x="230" d="M82 255v85h66v-85h-66z" unicode="·" glyph-name="periodcentered"/>
<glyph horiz-adv-x="500" d="M217 -148l-55 26l90 132h43z" unicode="¸" glyph-name="cedilla"/>
<glyph horiz-adv-x="325" d="M204 426h-39v352l-90 -34l-9 35l105 40h33v-393z" unicode="¹" glyph-name="one.sup"/>
<glyph horiz-adv-x="390" d="M196 450q44 0 72 31t28 75v2q0 45 -29.5 76.5t-72.5 31.5q-44 0 -72 -31t-28 -75v-2q0 -45 29.5 -76.5t72.5 -31.5zM51 293v40h288v-40h-288zM194 411q-61 0 -102 42.5t-41 102.5v2q0 60 41.5 103.5t103.5 43.5q61 0 102 -42.5t41 -102.5v-2q0 -60 -41.5 -103.5 t-103.5 -43.5z" unicode="º" glyph-name="ordmasculine"/>
<glyph horiz-adv-x="515" d="M100 42l-37 24l137 188l-137 190l37 24l160 -209v-8zM304 42l-37 24l137 188l-137 190l37 24l160 -209v-8z" unicode="»" glyph-name="guillemotright"/>
<glyph horiz-adv-x="825" d="M683 123v219l-158 -219h158zM199 314h-39v352l-90 -34l-9 35l105 40h33v-393zM140 0l246 356l231 344h43l-246 -356l-231 -344h-43zM720 89v-91h-37v91h-190l-12 32l194 271h45v-269h55v-34h-55z" unicode="¼" glyph-name="onequarter"/>
<glyph horiz-adv-x="825" d="M199 314h-39v352l-90 -34l-9 35l105 40h33v-393zM130 0l246 356l231 344h43l-246 -356l-231 -344h-43zM496 0v33l149 132q43 38 61.5 64.5t18.5 56.5q0 32 -23.5 53.5t-58.5 21.5q-63 0 -110 -72l-30 18q55 89 143 89q50 0 84.5 -31.5t34.5 -76.5q0 -39 -21 -69.5 t-72 -75.5l-122 -106h219v-37h-273z" unicode="½" glyph-name="onehalf"/>
<glyph horiz-adv-x="900" d="M758 123v219l-158 -219h158zM210 0l246 356l231 344h43l-246 -356l-231 -344h-43zM198 304q-89 0 -143 74l29 24q46 -63 115 -63q37 0 63 23t26 58q0 37 -31.5 58.5t-80.5 21.5h-28l-8 24l133 139h-198v37h248v-32l-128 -134q59 -5 96 -34t37 -80q0 -50 -38.5 -83 t-91.5 -33zM795 89v-91h-37v91h-190l-12 32l194 271h45v-269h55v-34h-55z" unicode="¾" glyph-name="threequarters"/>
<glyph horiz-adv-x="534" d="M269 -9q-97 0 -157 56.5t-60 138.5v2q0 88 59.5 140.5t152.5 63.5l9 125h32l13 -162l-5 -5q-98 -2 -153 -45t-55 -115v-2q0 -63 46 -107t120 -44q109 0 193 103l36 -30q-46 -58 -101 -88.5t-130 -30.5zM256 615v85h66v-85h-66z" unicode="¿" glyph-name="questiondown"/>
<glyph d="M416 775h-45l-107 90l59 28zM209 243h369l-184 405zM44 0l326 705h50l326 -705h-57l-89 196h-413l-89 -196h-54z" unicode="À" glyph-name="Agrave"/>
<glyph d="M374 775l93 118l59 -28l-107 -90h-45zM209 243h369l-184 405zM44 0l326 705h50l326 -705h-57l-89 196h-413l-89 -196h-54z" unicode="Á" glyph-name="Aacute"/>
<glyph d="M269 775l103 107h46l103 -107h-54l-73 61l-73 -61h-52zM209 243h369l-184 405zM44 0l326 705h50l326 -705h-57l-89 196h-413l-89 -196h-54z" unicode="Â" glyph-name="Acircumflex"/>
<glyph d="M463 775q-20 0 -70 21q-40 17 -56 17q-18 0 -28.5 -10t-21.5 -37l-37 10q14 47 33.5 67.5t48.5 20.5q20 0 70 -21q40 -17 56 -17q18 0 28 10t22 36l37 -10q-14 -47 -33.5 -67t-48.5 -20zM209 243h369l-184 405zM44 0l326 705h50l326 -705h-57l-89 196h-413l-89 -196h-54z " unicode="Ã" glyph-name="Atilde"/>
<glyph d="M271 775v76h74v-76h-74zM447 775v76h73v-76h-73zM209 243h369l-184 405zM44 0l326 705h50l326 -705h-57l-89 196h-413l-89 -196h-54z" unicode="Ä" glyph-name="Adieresis"/>
<glyph d="M395 690q29 0 48.5 18t19.5 45t-19.5 45t-48.5 18t-48.5 -18t-19.5 -45t19.5 -45t48.5 -18zM209 243h369l-184 405zM44 0l307 666q-28 11 -45 34t-17 53q0 40 31 67.5t75 27.5t75 -27.5t31 -67.5q0 -29 -17.5 -52.5t-45.5 -34.5l308 -666h-57l-89 196h-413l-89 -196h-54z " unicode="Å" glyph-name="Aring"/>
<glyph horiz-adv-x="1045" d="M222 243h272v410h-26zM20 0l424 700h533v-48h-431v-275h386v-48h-386v-281h436v-48h-488v196h-300l-118 -196h-56z" unicode="Æ" glyph-name="AE"/>
<glyph horiz-adv-x="738" d="M367 -148l-55 26l76 112q-137 12 -226 113.5t-89 244.5v2q0 150 100 256t250 106q87 0 149.5 -28.5t122.5 -83.5l-37 -38q-106 103 -236 103q-126 0 -210.5 -90.5t-84.5 -222.5v-2q0 -133 85.5 -224t210.5 -91q73 0 129 27t112 82l35 -34q-59 -58 -121 -88.5t-144 -33.5z " unicode="Ç" glyph-name="Ccedilla"/>
<glyph horiz-adv-x="670" d="M376 765h-45l-107 90l59 28zM104 0v700h498v-48h-446v-275h401v-48h-401v-281h451v-48h-503z" unicode="È" glyph-name="Egrave"/>
<glyph horiz-adv-x="670" d="M334 765l93 118l59 -28l-107 -90h-45zM104 0v700h498v-48h-446v-275h401v-48h-401v-281h451v-48h-503z" unicode="É" glyph-name="Eacute"/>
<glyph horiz-adv-x="670" d="M229 765l103 107h46l103 -107h-54l-73 61l-73 -61h-52zM104 0v700h498v-48h-446v-275h401v-48h-401v-281h451v-48h-503z" unicode="Ê" glyph-name="Ecircumflex"/>
<glyph horiz-adv-x="670" d="M231 765v76h74v-76h-74zM407 765v76h73v-76h-73zM104 0v700h498v-48h-446v-275h401v-48h-401v-281h451v-48h-503z" unicode="Ë" glyph-name="Edieresis"/>
<glyph horiz-adv-x="274" d="M158 765h-45l-107 90l59 28zM111 0v700h52v-700h-52z" unicode="Ì" glyph-name="Igrave"/>
<glyph horiz-adv-x="274" d="M116 765l93 118l59 -28l-107 -90h-45zM111 0v700h52v-700h-52z" unicode="Í" glyph-name="Iacute"/>
<glyph horiz-adv-x="274" d="M11 765l103 107h46l103 -107h-54l-73 61l-73 -61h-52zM111 0v700h52v-700h-52z" unicode="Î" glyph-name="Icircumflex"/>
<glyph horiz-adv-x="274" d="M13 765v76h74v-76h-74zM189 765v76h73v-76h-73zM111 0v700h52v-700h-52z" unicode="Ï" glyph-name="Idieresis"/>
<glyph horiz-adv-x="812" d="M418 328h-232v-280h181q143 0 230.5 86t87.5 214v2q0 128 -87.5 215t-230.5 87h-181v-276h232v-48zM134 0v328h-75v48h75v324h233q163 0 267.5 -99.5t104.5 -248.5v-2q0 -150 -104.5 -250t-267.5 -100h-233z" unicode="Ð" glyph-name="Eth"/>
<glyph d="M463 760q-20 0 -70 21q-40 17 -56 17q-18 0 -28.5 -10t-21.5 -37l-37 10q14 47 33.5 67.5t48.5 20.5q20 0 70 -21q40 -17 56 -17q18 0 28 10t22 36l37 -10q-14 -47 -33.5 -67t-48.5 -20zM104 0v700h49l483 -609v609h50v-700h-39l-493 622v-622h-50z" unicode="Ñ" glyph-name="Ntilde"/>
<glyph horiz-adv-x="850" d="M446 775h-45l-107 90l59 28zM426 35q128 0 212.5 91t84.5 222v2q0 131 -85.5 223t-213.5 92t-212.5 -91t-84.5 -222v-2q0 -131 85.5 -223t213.5 -92zM424 -12q-155 0 -253 106t-98 254v2q0 148 99 255t254 107t253 -106t98 -254v-2q0 -148 -99 -255t-254 -107z" unicode="Ò" glyph-name="Ograve"/>
<glyph horiz-adv-x="850" d="M404 775l93 118l59 -28l-107 -90h-45zM426 35q128 0 212.5 91t84.5 222v2q0 131 -85.5 223t-213.5 92t-212.5 -91t-84.5 -222v-2q0 -131 85.5 -223t213.5 -92zM424 -12q-155 0 -253 106t-98 254v2q0 148 99 255t254 107t253 -106t98 -254v-2q0 -148 -99 -255t-254 -107z " unicode="Ó" glyph-name="Oacute"/>
<glyph horiz-adv-x="850" d="M299 775l103 107h46l103 -107h-54l-73 61l-73 -61h-52zM426 35q128 0 212.5 91t84.5 222v2q0 131 -85.5 223t-213.5 92t-212.5 -91t-84.5 -222v-2q0 -131 85.5 -223t213.5 -92zM424 -12q-155 0 -253 106t-98 254v2q0 148 99 255t254 107t253 -106t98 -254v-2 q0 -148 -99 -255t-254 -107z" unicode="Ô" glyph-name="Ocircumflex"/>
<glyph horiz-adv-x="850" d="M493 775q-20 0 -70 21q-40 17 -56 17q-18 0 -28.5 -10t-21.5 -37l-37 10q14 47 33.5 67.5t48.5 20.5q20 0 70 -21q40 -17 56 -17q18 0 28 10t22 36l37 -10q-14 -47 -33.5 -67t-48.5 -20zM426 35q128 0 212.5 91t84.5 222v2q0 131 -85.5 223t-213.5 92t-212.5 -91 t-84.5 -222v-2q0 -131 85.5 -223t213.5 -92zM424 -12q-155 0 -253 106t-98 254v2q0 148 99 255t254 107t253 -106t98 -254v-2q0 -148 -99 -255t-254 -107z" unicode="Õ" glyph-name="Otilde"/>
<glyph horiz-adv-x="850" d="M301 775v76h74v-76h-74zM477 775v76h73v-76h-73zM426 35q128 0 212.5 91t84.5 222v2q0 131 -85.5 223t-213.5 92t-212.5 -91t-84.5 -222v-2q0 -131 85.5 -223t213.5 -92zM424 -12q-155 0 -253 106t-98 254v2q0 148 99 255t254 107t253 -106t98 -254v-2q0 -148 -99 -255 t-254 -107z" unicode="Ö" glyph-name="Odieresis"/>
<glyph horiz-adv-x="620" d="M490 136l-181 183l-181 -183l-34 34l183 181l-183 181l36 36l181 -183l181 183l34 -34l-183 -181l183 -181z" unicode="×" glyph-name="multiply"/>
<glyph horiz-adv-x="850" d="M126 352q0 -125 74 -213l421 452q-83 75 -197 75q-129 0 -213.5 -91t-84.5 -223zM426 34q129 0 213.5 91t84.5 223q0 122 -75 213l-420 -452q81 -75 197 -75zM725 705h60l-100 -107q92 -101 92 -246v-2q0 -148 -99 -255t-254 -107q-133 0 -228 82l-71 -75h-60l99 106 q-91 104 -91 247v2q0 148 99 255t254 107q132 0 228 -83z" unicode="Ø" glyph-name="Oslash"/>
<glyph horiz-adv-x="760" d="M401 760h-45l-107 90l59 28zM380 -11q-129 0 -208 79t-79 223v409h52v-404q0 -123 63 -191.5t174 -68.5q109 0 171 65.5t62 189.5v409h52v-403q0 -147 -78 -227.5t-209 -80.5z" unicode="Ù" glyph-name="Ugrave"/>
<glyph horiz-adv-x="760" d="M359 760l93 118l59 -28l-107 -90h-45zM380 -11q-129 0 -208 79t-79 223v409h52v-404q0 -123 63 -191.5t174 -68.5q109 0 171 65.5t62 189.5v409h52v-403q0 -147 -78 -227.5t-209 -80.5z" unicode="Ú" glyph-name="Uacute"/>
<glyph horiz-adv-x="760" d="M254 760l103 107h46l103 -107h-54l-73 61l-73 -61h-52zM380 -11q-129 0 -208 79t-79 223v409h52v-404q0 -123 63 -191.5t174 -68.5q109 0 171 65.5t62 189.5v409h52v-403q0 -147 -78 -227.5t-209 -80.5z" unicode="Û" glyph-name="Ucircumflex"/>
<glyph horiz-adv-x="760" d="M256 760v76h74v-76h-74zM432 760v76h73v-76h-73zM380 -11q-129 0 -208 79t-79 223v409h52v-404q0 -123 63 -191.5t174 -68.5q109 0 171 65.5t62 189.5v409h52v-403q0 -147 -78 -227.5t-209 -80.5z" unicode="Ü" glyph-name="Udieresis"/>
<glyph horiz-adv-x="716" d="M337 760l93 118l59 -28l-107 -90h-45zM332 0v277l-300 423h65l262 -376l263 376h62l-300 -422v-278h-52z" unicode="Ý" glyph-name="Yacute"/>
<glyph horiz-adv-x="673" d="M156 181h192q98 0 158 47.5t60 125.5v2q0 81 -57.5 125t-154.5 44h-198v-344zM104 0v700h52v-127h202q117 0 188.5 -57t71.5 -157v-2q0 -106 -78.5 -165t-194.5 -59h-189v-133h-52z" unicode="Þ" glyph-name="Thorn"/>
<glyph horiz-adv-x="620" d="M289 -2v43q101 2 158 39.5t57 106.5v2q0 130 -215 153v41q170 52 170 175v2q0 57 -41.5 94t-107.5 37q-74 0 -121 -52t-47 -139v-500h-49v500q0 105 60 171t160 66q89 0 144 -50t55 -125v-2q0 -68 -45.5 -117t-111.5 -73q88 -15 145 -59.5t57 -119.5v-2q0 -90 -72 -140.5 t-196 -50.5z" unicode="ß" glyph-name="germandbls"/>
<glyph horiz-adv-x="574" d="M266 595l-107 103l61 30l88 -133h-42zM251 34q80 0 136.5 44.5t56.5 112.5v58q-90 23 -173 23q-80 0 -124 -32.5t-44 -86.5v-2q0 -53 43.5 -85t104.5 -32zM248 -12q-78 0 -137.5 42.5t-59.5 117.5v2q0 78 61 122t162 44q86 0 169 -22v22q0 76 -44 116t-124 40t-160 -41 l-18 43q95 44 181 44q105 0 161 -56q52 -52 52 -144v-318h-48v85q-69 -97 -195 -97z" unicode="à" glyph-name="agrave"/>
<glyph horiz-adv-x="574" d="M266 595l88 133l61 -30l-107 -103h-42zM251 34q80 0 136.5 44.5t56.5 112.5v58q-90 23 -173 23q-80 0 -124 -32.5t-44 -86.5v-2q0 -53 43.5 -85t104.5 -32zM248 -12q-78 0 -137.5 42.5t-59.5 117.5v2q0 78 61 122t162 44q86 0 169 -22v22q0 76 -44 116t-124 40t-160 -41 l-18 43q95 44 181 44q105 0 161 -56q52 -52 52 -144v-318h-48v85q-69 -97 -195 -97z" unicode="á" glyph-name="aacute"/>
<glyph horiz-adv-x="574" d="M167 595l100 122h40l100 -122h-47l-74 68l-74 -68h-45zM251 34q80 0 136.5 44.5t56.5 112.5v58q-90 23 -173 23q-80 0 -124 -32.5t-44 -86.5v-2q0 -53 43.5 -85t104.5 -32zM248 -12q-78 0 -137.5 42.5t-59.5 117.5v2q0 78 61 122t162 44q86 0 169 -22v22q0 76 -44 116 t-124 40t-160 -41l-18 43q95 44 181 44q105 0 161 -56q52 -52 52 -144v-318h-48v85q-69 -97 -195 -97z" unicode="â" glyph-name="acircumflex"/>
<glyph horiz-adv-x="574" d="M354 595q-20 0 -65 20q-46 21 -63 21q-18 0 -28.5 -10.5t-21.5 -39.5l-34 9q14 52 33.5 72.5t50.5 20.5q20 0 65 -20q46 -21 63 -21q18 0 28.5 10.5t21.5 39.5l34 -9q-14 -52 -33.5 -72.5t-50.5 -20.5zM251 34q80 0 136.5 44.5t56.5 112.5v58q-90 23 -173 23 q-80 0 -124 -32.5t-44 -86.5v-2q0 -53 43.5 -85t104.5 -32zM248 -12q-78 0 -137.5 42.5t-59.5 117.5v2q0 78 61 122t162 44q86 0 169 -22v22q0 76 -44 116t-124 40t-160 -41l-18 43q95 44 181 44q105 0 161 -56q52 -52 52 -144v-318h-48v85q-69 -97 -195 -97z" unicode="ã" glyph-name="atilde"/>
<glyph horiz-adv-x="574" d="M171 595v80h69v-80h-69zM334 595v80h69v-80h-69zM251 34q80 0 136.5 44.5t56.5 112.5v58q-90 23 -173 23q-80 0 -124 -32.5t-44 -86.5v-2q0 -53 43.5 -85t104.5 -32zM248 -12q-78 0 -137.5 42.5t-59.5 117.5v2q0 78 61 122t162 44q86 0 169 -22v22q0 76 -44 116t-124 40 t-160 -41l-18 43q95 44 181 44q105 0 161 -56q52 -52 52 -144v-318h-48v85q-69 -97 -195 -97z" unicode="ä" glyph-name="adieresis"/>
<glyph horiz-adv-x="574" d="M287 623q29 0 49.5 20.5t20.5 49.5t-20.5 49.5t-49.5 20.5t-49.5 -20.5t-20.5 -49.5t20.5 -49.5t49.5 -20.5zM287 593q-43 0 -73.5 29.5t-30.5 70.5t30.5 70.5t73.5 29.5t73.5 -29.5t30.5 -70.5t-30.5 -70.5t-73.5 -29.5zM251 34q80 0 136.5 44.5t56.5 112.5v58 q-90 23 -173 23q-80 0 -124 -32.5t-44 -86.5v-2q0 -53 43.5 -85t104.5 -32zM248 -12q-78 0 -137.5 42.5t-59.5 117.5v2q0 78 61 122t162 44q86 0 169 -22v22q0 76 -44 116t-124 40t-160 -41l-18 43q95 44 181 44q105 0 161 -56q52 -52 52 -144v-318h-48v85q-69 -97 -195 -97 z" unicode="å" glyph-name="aring"/>
<glyph horiz-adv-x="954" d="M246 34q118 0 204 107q-21 52 -22 109q-95 22 -162 22q-77 0 -120 -32.5t-43 -86.5v-2q0 -54 41 -85.5t102 -31.5zM480 279h371q-6 84 -53 141t-130 57q-75 0 -128 -56.5t-60 -141.5zM243 -12q-77 0 -134.5 42.5t-57.5 117.5v2q0 78 60 122t158 44q77 0 160 -22v22 q0 76 -42 116t-119 40q-73 0 -153 -41l-18 43q93 44 174 44q158 0 193 -128q31 60 85.5 96t120.5 36q105 0 169.5 -76t64.5 -191q0 -12 -1 -20h-423q7 -92 64.5 -146.5t135.5 -54.5q100 0 175 80l34 -30q-89 -96 -211 -96q-63 0 -117.5 29.5t-88.5 82.5q-97 -112 -229 -112z " unicode="æ" glyph-name="ae"/>
<glyph horiz-adv-x="571" d="M263 -148l-55 26l76 112q-97 13 -161.5 88.5t-64.5 174.5v2q0 108 76 187.5t184 79.5q114 0 204 -94l-35 -36q-82 84 -170 84q-87 0 -146.5 -63.5t-59.5 -155.5v-2q0 -92 61 -156.5t149 -64.5q95 0 171 85l34 -30q-84 -96 -196 -101z" unicode="ç" glyph-name="ccedilla"/>
<glyph horiz-adv-x="584" d="M279 595l-107 103l61 30l88 -133h-42zM110 279h371q-6 84 -53 141t-130 57q-75 0 -128 -56.5t-60 -141.5zM308 -12q-103 0 -176.5 75t-73.5 191v2q0 112 69.5 189t172.5 77q105 0 169.5 -76t64.5 -191q0 -12 -1 -20h-423q7 -92 64.5 -146.5t135.5 -54.5q100 0 175 80 l34 -30q-89 -96 -211 -96z" unicode="è" glyph-name="egrave"/>
<glyph horiz-adv-x="584" d="M279 595l88 133l61 -30l-107 -103h-42zM110 279h371q-6 84 -53 141t-130 57q-75 0 -128 -56.5t-60 -141.5zM308 -12q-103 0 -176.5 75t-73.5 191v2q0 112 69.5 189t172.5 77q105 0 169.5 -76t64.5 -191q0 -12 -1 -20h-423q7 -92 64.5 -146.5t135.5 -54.5q100 0 175 80 l34 -30q-89 -96 -211 -96z" unicode="é" glyph-name="eacute"/>
<glyph horiz-adv-x="584" d="M180 595l100 122h40l100 -122h-47l-74 68l-74 -68h-45zM110 279h371q-6 84 -53 141t-130 57q-75 0 -128 -56.5t-60 -141.5zM308 -12q-103 0 -176.5 75t-73.5 191v2q0 112 69.5 189t172.5 77q105 0 169.5 -76t64.5 -191q0 -12 -1 -20h-423q7 -92 64.5 -146.5t135.5 -54.5 q100 0 175 80l34 -30q-89 -96 -211 -96z" unicode="ê" glyph-name="ecircumflex"/>
<glyph horiz-adv-x="584" d="M184 595v80h69v-80h-69zM347 595v80h69v-80h-69zM110 279h371q-6 84 -53 141t-130 57q-75 0 -128 -56.5t-60 -141.5zM308 -12q-103 0 -176.5 75t-73.5 191v2q0 112 69.5 189t172.5 77q105 0 169.5 -76t64.5 -191q0 -12 -1 -20h-423q7 -92 64.5 -146.5t135.5 -54.5 q100 0 175 80l34 -30q-89 -96 -211 -96z" unicode="ë" glyph-name="edieresis"/>
<glyph horiz-adv-x="249" d="M103 595l-107 103l61 30l88 -133h-42zM100 0v510h49v-510h-49z" unicode="ì" glyph-name="igrave"/>
<glyph horiz-adv-x="249" d="M103 595l88 133l61 -30l-107 -103h-42zM100 0v510h49v-510h-49z" unicode="í" glyph-name="iacute"/>
<glyph horiz-adv-x="249" d="M4 595l100 122h40l100 -122h-47l-74 68l-74 -68h-45zM100 0v510h49v-510h-49z" unicode="î" glyph-name="icircumflex"/>
<glyph horiz-adv-x="249" d="M8 595v80h69v-80h-69zM171 595v80h69v-80h-69zM100 0v510h49v-510h-49z" unicode="ï" glyph-name="idieresis"/>
<glyph horiz-adv-x="639" d="M320 34q90 0 148.5 63t58.5 157v2q0 91 -61 150.5t-156 59.5q-88 0 -143.5 -60t-55.5 -152v-2q0 -90 60.5 -154t148.5 -64zM476 697l-88 -44q192 -187 192 -372v-2q0 -130 -73.5 -210.5t-191.5 -80.5q-107 0 -182 78.5t-75 188.5v2q0 111 73.5 182t172.5 71 q114 0 200 -86q-40 95 -161 206l-110 -55l-22 36l99 49q-33 30 -86 70h77q35 -30 54 -47l99 50z" unicode="ð" glyph-name="eth"/>
<glyph horiz-adv-x="613" d="M378 595q-20 0 -65 20q-46 21 -63 21q-18 0 -28.5 -10.5t-21.5 -39.5l-34 9q14 52 33.5 72.5t50.5 20.5q20 0 65 -20q46 -21 63 -21q18 0 28.5 10.5t21.5 39.5l34 -9q-14 -52 -33.5 -72.5t-50.5 -20.5zM93 0v510h49v-95q61 107 184 107q95 0 149.5 -58.5t54.5 -151.5 v-312h-49v303q0 80 -43 127t-119 47t-126.5 -51.5t-50.5 -130.5v-295h-49z" unicode="ñ" glyph-name="ntilde"/>
<glyph horiz-adv-x="640" d="M299 595l-107 103l61 30l88 -133h-42zM321 34q90 0 149 64t59 155v2q0 92 -61 156.5t-149 64.5q-90 0 -149 -64t-59 -155v-2q0 -92 61 -156.5t149 -64.5zM319 -12q-112 0 -186.5 78t-74.5 187v2q0 109 75.5 188t187.5 79t186.5 -78t74.5 -187v-2q0 -109 -75.5 -188 t-187.5 -79z" unicode="ò" glyph-name="ograve"/>
<glyph horiz-adv-x="640" d="M299 595l88 133l61 -30l-107 -103h-42zM321 34q90 0 149 64t59 155v2q0 92 -61 156.5t-149 64.5q-90 0 -149 -64t-59 -155v-2q0 -92 61 -156.5t149 -64.5zM319 -12q-112 0 -186.5 78t-74.5 187v2q0 109 75.5 188t187.5 79t186.5 -78t74.5 -187v-2q0 -109 -75.5 -188 t-187.5 -79z" unicode="ó" glyph-name="oacute"/>
<glyph horiz-adv-x="640" d="M200 595l100 122h40l100 -122h-47l-74 68l-74 -68h-45zM321 34q90 0 149 64t59 155v2q0 92 -61 156.5t-149 64.5q-90 0 -149 -64t-59 -155v-2q0 -92 61 -156.5t149 -64.5zM319 -12q-112 0 -186.5 78t-74.5 187v2q0 109 75.5 188t187.5 79t186.5 -78t74.5 -187v-2 q0 -109 -75.5 -188t-187.5 -79z" unicode="ô" glyph-name="ocircumflex"/>
<glyph horiz-adv-x="640" d="M387 595q-20 0 -65 20q-46 21 -63 21q-18 0 -28.5 -10.5t-21.5 -39.5l-34 9q14 52 33.5 72.5t50.5 20.5q20 0 65 -20q46 -21 63 -21q18 0 28.5 10.5t21.5 39.5l34 -9q-14 -52 -33.5 -72.5t-50.5 -20.5zM321 34q90 0 149 64t59 155v2q0 92 -61 156.5t-149 64.5 q-90 0 -149 -64t-59 -155v-2q0 -92 61 -156.5t149 -64.5zM319 -12q-112 0 -186.5 78t-74.5 187v2q0 109 75.5 188t187.5 79t186.5 -78t74.5 -187v-2q0 -109 -75.5 -188t-187.5 -79z" unicode="õ" glyph-name="otilde"/>
<glyph horiz-adv-x="640" d="M204 595v80h69v-80h-69zM367 595v80h69v-80h-69zM321 34q90 0 149 64t59 155v2q0 92 -61 156.5t-149 64.5q-90 0 -149 -64t-59 -155v-2q0 -92 61 -156.5t149 -64.5zM319 -12q-112 0 -186.5 78t-74.5 187v2q0 109 75.5 188t187.5 79t186.5 -78t74.5 -187v-2 q0 -109 -75.5 -188t-187.5 -79z" unicode="ö" glyph-name="odieresis"/>
<glyph horiz-adv-x="620" d="M270 115v89h80v-89h-80zM552 328h-484v48h484v-48zM270 500v89h80v-89h-80z" unicode="÷" glyph-name="divide"/>
<glyph horiz-adv-x="640" d="M110 257q0 -83 47 -144l299 311q-58 53 -137 53q-90 0 -149.5 -64t-59.5 -156zM321 33q90 0 149.5 64t59.5 156q0 84 -49 144l-297 -312q57 -52 137 -52zM540 517h57l-80 -84q65 -75 65 -176v-2q0 -109 -75.5 -188t-187.5 -79q-96 0 -167 60l-52 -53h-57l79 82 q-64 77 -64 176v2q0 109 75.5 188t187.5 79q96 0 167 -61z" unicode="ø" glyph-name="oslash"/>
<glyph horiz-adv-x="613" d="M280 595l-107 103l61 30l88 -133h-42zM287 -12q-95 0 -149.5 58.5t-54.5 151.5v312h49v-303q0 -80 43 -127t119 -47t126.5 51.5t50.5 130.5v295h49v-510h-49v95q-61 -107 -184 -107z" unicode="ù" glyph-name="ugrave"/>
<glyph horiz-adv-x="613" d="M280 595l88 133l61 -30l-107 -103h-42zM287 -12q-95 0 -149.5 58.5t-54.5 151.5v312h49v-303q0 -80 43 -127t119 -47t126.5 51.5t50.5 130.5v295h49v-510h-49v95q-61 -107 -184 -107z" unicode="ú" glyph-name="uacute"/>
<glyph horiz-adv-x="613" d="M181 595l100 122h40l100 -122h-47l-74 68l-74 -68h-45zM287 -12q-95 0 -149.5 58.5t-54.5 151.5v312h49v-303q0 -80 43 -127t119 -47t126.5 51.5t50.5 130.5v295h49v-510h-49v95q-61 -107 -184 -107z" unicode="û" glyph-name="ucircumflex"/>
<glyph horiz-adv-x="613" d="M185 595v80h69v-80h-69zM348 595v80h69v-80h-69zM287 -12q-95 0 -149.5 58.5t-54.5 151.5v312h49v-303q0 -80 43 -127t119 -47t126.5 51.5t50.5 130.5v295h49v-510h-49v95q-61 -107 -184 -107z" unicode="ü" glyph-name="udieresis"/>
<glyph horiz-adv-x="588" d="M277 595l88 133l61 -30l-107 -103h-42zM308 54l184 456h54l-221 -528q-33 -78 -73.5 -111.5t-96.5 -33.5q-51 0 -101 22l17 43q39 -19 87 -19q40 0 69 27t57 93l-245 507h57z" unicode="ý" glyph-name="yacute"/>
<glyph horiz-adv-x="660" d="M347 35q86 0 143 59t57 159v2q0 98 -58.5 159t-141.5 61t-145.5 -62.5t-62.5 -156.5v-2q0 -95 62.5 -157t145.5 -62zM93 -160v890h49v-334q83 126 210 126q98 0 173 -73t75 -192v-2q0 -119 -75 -193t-173 -74q-130 0 -210 122v-270h-49z" unicode="þ" glyph-name="thorn"/>
</font>
</defs>
</svg>
