<?xml version="1.0" standalone="no"?>
<!DOCTYPE svg PUBLIC "-//W3C//DTD SVG 1.1//EN" "http://www.w3.org/Graphics/SVG/1.1/DTD/svg11.dtd" >
<svg xmlns="http://www.w3.org/2000/svg" xmlns:xlink="http://www.w3.org/1999/xlink" version="1.1">
<metadata>
Created by FontForge 20150824 at Fri Oct  7 22:55:28 2016
 By Everything Fonts
</metadata>
<defs>
<font id="DIN-Mod" horiz-adv-x="402" >
  <font-face 
    font-family="DIN Mod"
    font-weight="500"
    font-stretch="normal"
    units-per-em="1000"
    panose-1="2 0 6 3 0 0 0 0 0 0"
    ascent="800"
    descent="-200"
    x-height="551"
    cap-height="774"
    bbox="-179 -243 2115 1018"
    underline-thickness="54"
    underline-position="-163"
    unicode-range="U+0020-FB02"
  />
<missing-glyph horiz-adv-x="280" 
 />
    <glyph glyph-name=".notdef" horiz-adv-x="280" 
 />
    <glyph glyph-name=".null" horiz-adv-x="0" 
 />
    <glyph glyph-name="nonmarkingreturn" horiz-adv-x="333" 
 />
    <glyph glyph-name="space" unicode=" " horiz-adv-x="202" 
d="M0 0z" />
    <glyph glyph-name="exclam" unicode="!" horiz-adv-x="261" 
d="M103 191l-42 583h139l-42 -583h-55zM75 0v111h111v-111h-111z" />
    <glyph glyph-name="quotedbl" unicode="&#x22;" horiz-adv-x="302" 
d="M36 583v191h87v-191h-87zM179 583v191h87v-191h-87z" />
    <glyph glyph-name="numbersign" unicode="#" horiz-adv-x="404" 
d="M196 0l31 234h-91l-32 -234h-74l32 234h-55v65h64l24 176h-55v65h63l32 234h74l-32 -234h91l32 234h74l-32 -234h56v-65h-64l-24 -176h54v-65h-63l-31 -234h-74zM236 299l24 176h-92l-23 -176h91z" />
    <glyph glyph-name="dollar" unicode="$" horiz-adv-x="404" 
d="M175 -98v91q-71 8 -117 59t-46 123v43h111v-39q0 -62 52 -75v250l-37 16q-69 28 -95 74.5t-26 123.5q0 86 41 144t117 68v82h55v-82q72 -9 117 -60t45 -115v-54h-110v25q0 77 -52 94v-219l46 -18q70 -26 93 -73.5t23 -138.5q0 -212 -162 -228v-91h-55zM230 330v-226
q32 8 42 35t10 81q0 55 -9.5 76t-42.5 34zM175 475v195q-47 -19 -47 -100q0 -42 8.5 -61.5t38.5 -33.5z" />
    <glyph glyph-name="percent" unicode="%" horiz-adv-x="383" 
d="M102 538q-42 0 -67 23t-25 60v70q0 41 25 65t67 24q43 0 68 -24t25 -65v-70q0 -37 -25.5 -60t-67.5 -23zM280 -7q-42 0 -67 23t-25 60v71q0 41 25 65t67 24q43 0 68 -24t25 -65v-71q0 -37 -25.5 -60t-67.5 -23zM23 0l265 774h72l-265 -774h-72zM102 603q11 0 19 8.5
t8 20.5v55q0 11 -8 19.5t-19 8.5t-19 -8.5t-8 -19.5v-55q0 -12 8 -20.5t19 -8.5zM253 142v-55q0 -11 8 -19.5t19 -8.5t19.5 8.5t8.5 19.5v55q0 12 -8.5 20.5t-19.5 8.5t-19 -8.5t-8 -20.5z" />
    <glyph glyph-name="ampersand" unicode="&#x26;" horiz-adv-x="523" 
d="M384 0l-37 59q-66 -66 -148 -66q-67 0 -113.5 50.5t-46.5 129.5q0 106 107 201q-68 96 -68 178q0 65 39.5 107.5t111.5 42.5q69 0 108 -40t39 -100q0 -93 -113 -195q5 -9 42.5 -69.5t59.5 -92.5l60 82l68 -48l-82 -106l84 -133h-111zM137 178q0 -40 24 -69t59 -29
q44 0 82 47l-106 170q-59 -61 -59 -119zM176 550q0 -41 42 -112q67 62 67 122q0 21 -15 38t-38 17q-25 0 -40.5 -19.5t-15.5 -45.5z" />
    <glyph glyph-name="quotesingle" unicode="'" horiz-adv-x="202" 
d="M58 583v191h87v-191h-87z" />
    <glyph glyph-name="parenleft" unicode="(" horiz-adv-x="241" 
d="M184 774h37q-56 -194 -56 -472q0 -209 56 -411h-37q-63 91 -96.5 211t-33.5 231q0 113 35 232t95 209z" />
    <glyph glyph-name="parenright" unicode=")" horiz-adv-x="241" 
d="M58 -109h-37q55 195 55 472q0 207 -55 411h37q62 -91 95.5 -210.5t33.5 -230.5q0 -112 -34.5 -232t-94.5 -210z" />
    <glyph glyph-name="asterisk" unicode="*" 
d="M34 657l30 56l107 -65l-5 126h70l-4 -126l106 65l30 -56l-108 -61l108 -60l-30 -58l-106 65l4 -126h-70l5 126l-107 -65l-30 58l108 60z" />
    <glyph glyph-name="plus" unicode="+" horiz-adv-x="652" 
d="M283 318v232h87v-232h231v-86h-231v-232h-87v232h-232v86h232z" />
    <glyph glyph-name="comma" unicode="," horiz-adv-x="202" 
d="M46 -80v191h111v-111z" />
    <glyph glyph-name="hyphen" unicode="-" horiz-adv-x="423" 
d="M48 246v111h327v-111h-327z" />
    <glyph glyph-name="period" unicode="." horiz-adv-x="202" 
d="M46 0v111h111v-111h-111z" />
    <glyph glyph-name="slash" unicode="/" horiz-adv-x="241" 
d="M5 -7l144 787h87l-144 -787h-87z" />
    <glyph glyph-name="zero" unicode="0" horiz-adv-x="404" 
d="M37 160v454q0 75 48 120.5t117 45.5t117 -45.5t48 -120.5v-454q0 -75 -48.5 -121t-116.5 -46t-116.5 46t-48.5 121zM148 614v-454q0 -24 15.5 -40t38.5 -16q24 0 39.5 16t15.5 40v454q0 24 -15.5 40t-39.5 16q-23 0 -38.5 -16t-15.5 -40z" />
    <glyph glyph-name="one" unicode="1" horiz-adv-x="404" 
d="M168 0v657l-110 -82v117l110 82h111v-774h-111z" />
    <glyph glyph-name="two" unicode="2" horiz-adv-x="404" 
d="M37 0v104l200 378q10 18 14.5 35t5 29t0.5 38q0 16 -0.5 24.5t-3 22t-8 21t-16.5 13t-27 5.5q-24 0 -39 -15t-15 -41v-63h-111v61q0 69 48.5 118.5t117.5 49.5q81 0 122.5 -55t41.5 -139q0 -59 -6 -86t-31 -75l-163 -314h200v-111h-330z" />
    <glyph glyph-name="three" unicode="3" horiz-adv-x="404" 
d="M168 350v98q52 0 70.5 13t18.5 54v100q0 24 -15 39.5t-40 15.5q-27 0 -40.5 -17t-13.5 -38v-63h-111v64q0 69 49 116.5t118 47.5q76 0 121 -54q23 -28 32.5 -61t9.5 -103q0 -81 -10.5 -107.5t-57.5 -54.5q48 -30 58 -59t10 -118q0 -74 -5.5 -103.5t-23.5 -55.5
q-48 -71 -137 -71q-39 0 -74.5 15t-62.5 54.5t-27 96.5v63h111v-58q0 -27 14.5 -43.5t39.5 -16.5t40 16.5t15 45.5v111q0 45 -17.5 59t-71.5 14z" />
    <glyph glyph-name="four" unicode="4" horiz-adv-x="404" 
d="M230 0v115h-220v105l160 554h117l-166 -554h109v220h111v-220h54v-105h-54v-115h-111z" />
    <glyph glyph-name="five" unicode="5" horiz-adv-x="404" 
d="M367 774v-104h-219v-209q38 36 92 36q58 0 92.5 -36t34.5 -101v-200q0 -75 -48.5 -121t-116.5 -46t-116.5 46t-48.5 121v32h111v-28q0 -28 15.5 -44t40.5 -16t39 15.5t14 42.5v181q0 24 -15 40t-38 16q-37 0 -56 -42h-98v417h317z" />
    <glyph glyph-name="six" unicode="6" horiz-adv-x="445" 
d="M391 615h-102q0 25 -17 42t-42 17q-22 0 -40 -16.5t-18 -41.5v-178q19 12 33 16q25 8 69 8q28 0 53.5 -14t39.5 -36q14 -23 18.5 -56t4.5 -123q0 -75 -4.5 -103t-19.5 -55q-44 -75 -140 -75q-93 0 -139 75q-17 26 -21.5 54.5t-4.5 103.5v317q0 75 4.5 103t20.5 55
q21 35 60 55t84 20q67 0 114 -49t47 -119zM280 166v144q0 23 -16 38.5t-38 15.5t-38 -15.5t-16 -38.5v-144q0 -24 16 -39.5t38 -15.5t38 15.5t16 39.5z" />
    <glyph glyph-name="seven" unicode="7" horiz-adv-x="404" 
d="M62 0l195 670h-122v-90h-98v194h330v-111l-188 -663h-117z" />
    <glyph glyph-name="eight" unicode="8" horiz-adv-x="404" 
d="M37 572q0 61 8.5 90.5t31.5 58.5q47 59 125 59q80 0 125 -59q23 -29 31.5 -58t8.5 -91q0 -75 -9 -105t-46 -60q38 -29 46.5 -62.5t8.5 -128.5q0 -68 -6 -98t-24 -56q-45 -69 -135 -69t-135 69q-17 27 -23.5 56.5t-6.5 97.5q0 95 8.5 128.5t46.5 62.5q-37 30 -46 60
t-9 105zM257 502v113q0 23 -16.5 39t-38.5 16q-21 0 -37.5 -16t-16.5 -39v-113q0 -22 16.5 -38t37.5 -16t38 16t17 38zM257 159v152q0 22 -17 38t-38 16t-37.5 -16t-16.5 -38v-152q0 -23 16.5 -39t37.5 -16q22 0 38.5 16t16.5 39z" />
    <glyph glyph-name="nine" unicode="9" horiz-adv-x="445" 
d="M57 167h102q0 -24 17 -41t41 -17q23 0 41 16.5t18 40.5v179q-19 -12 -34 -17q-25 -7 -68 -7q-61 0 -94 50q-14 23 -18 56t-4 123q0 75 4.5 103t19.5 55q45 75 140 75q92 0 139 -75q17 -26 21.5 -54.5t4.5 -103.5v-317q0 -75 -4.5 -103t-20.5 -55q-21 -35 -60 -55t-85 -20
q-67 0 -113.5 49t-46.5 118zM167 616v-143q0 -24 16.5 -39.5t38.5 -15.5t38 15.5t16 39.5v143q0 25 -16 40.5t-38 15.5q-23 0 -39 -15.5t-16 -40.5z" />
    <glyph glyph-name="colon" unicode=":" horiz-adv-x="202" 
d="M46 0v111h111v-111h-111zM46 247v111h111v-111h-111z" />
    <glyph glyph-name="semicolon" unicode=";" horiz-adv-x="202" 
d="M46 -80v191h111v-111zM46 247v111h111v-111h-111z" />
    <glyph glyph-name="less" unicode="&#x3c;" horiz-adv-x="652" 
d="M601 559v-87l-431 -197l431 -197v-87l-550 251v66z" />
    <glyph glyph-name="equal" unicode="=" horiz-adv-x="652" 
d="M51 340v87h550v-87h-550zM51 123v87h550v-87h-550z" />
    <glyph glyph-name="greater" unicode="&#x3e;" horiz-adv-x="652" 
d="M51 -9v87l432 197l-432 197v87l550 -251v-66z" />
    <glyph glyph-name="question" unicode="?" 
d="M35 551v64q0 69 49 117t118 48q83 0 128 -62q22 -29 29.5 -55.5t7.5 -76.5q0 -95 -17 -124l-75 -128q-18 -32 -18 -56v-87h-111v101q0 42 27 88l69 113q15 26 15 64v57q0 23 -16 39.5t-39 16.5q-21 0 -38.5 -15.5t-17.5 -40.5v-63h-111zM146 0v111h111v-111h-111z" />
    <glyph glyph-name="at" unicode="@" horiz-adv-x="870" 
d="M695 596l-95 -299q-11 -31 -11 -49q0 -32 25 -32q52 0 100 77.5t48 156.5q0 111 -86.5 185t-204.5 74q-135 0 -232 -98t-97 -227q0 -133 96.5 -226t237.5 -93q77 0 150.5 33t113.5 81h84q-53 -86 -149 -136t-208 -50q-171 0 -289.5 113.5t-118.5 282.5q0 163 121 277
t290 114q156 0 266 -92t110 -233q0 -64 -25.5 -123t-64 -97.5t-81 -61t-77.5 -22.5q-78 0 -85 69h-2q-21 -23 -34.5 -34.5t-40 -23t-58.5 -11.5q-68 0 -111.5 48t-43.5 117q0 114 72.5 206t181.5 92q41 0 75 -21.5t50 -63.5h2l22 67h69zM558 446q0 39 -21.5 64.5t-59.5 25.5
q-67 0 -117 -69.5t-50 -142.5q0 -45 24.5 -70t65.5 -25q59 0 108.5 73.5t49.5 143.5z" />
    <glyph glyph-name="A" unicode="A" horiz-adv-x="442" 
d="M2 0l173 774h92l173 -774h-111l-32 166h-151l-33 -166h-111zM276 271l-54 280h-2l-55 -280h111z" />
    <glyph glyph-name="B" unicode="B" horiz-adv-x="463" 
d="M52 0v774h162q101 0 149 -56t48 -140v-28q0 -58 -18 -88t-58 -55q76 -37 76 -153v-43q0 -211 -208 -211h-151zM163 359v-248h48q61 0 78.5 31.5t17.5 98.5q0 63 -19 90.5t-76 27.5h-49zM163 670v-213h50q53 0 73.5 26t20.5 82q0 54 -22.5 79.5t-75.5 25.5h-46z" />
    <glyph glyph-name="C" unicode="C" horiz-adv-x="442" 
d="M404 221v-48q0 -73 -51.5 -126.5t-124.5 -53.5q-34 0 -64.5 9t-58 29t-43.5 57.5t-16 87.5v426q0 77 50 127.5t130 50.5q77 0 127.5 -52t50.5 -132v-44h-111v37q0 34 -18.5 57.5t-49.5 23.5q-39 0 -53.5 -23.5t-14.5 -67.5v-395q0 -80 67 -80q27 0 48 19t21 60v38h111z
" />
    <glyph glyph-name="D" unicode="D" horiz-adv-x="463" 
d="M52 0v774h164q93 0 144 -53t51 -147v-362q0 -106 -52.5 -159t-151.5 -53h-155zM163 670v-566h51q46 0 66 23.5t20 73.5v373q0 48 -19.5 72t-66.5 24h-51z" />
    <glyph glyph-name="E" unicode="E" 
d="M52 0v774h331v-104h-220v-228h191v-104h-191v-227h220v-111h-331z" />
    <glyph glyph-name="F" unicode="F" 
d="M52 0v774h331v-104h-220v-235h191v-105h-191v-330h-111z" />
    <glyph glyph-name="G" unicode="G" horiz-adv-x="463" 
d="M46 183v408q0 89 56 139t130 50t129.5 -50t55.5 -139v-39h-110v39q0 38 -21.5 58.5t-53.5 20.5q-33 0 -54 -20t-21 -59v-408q0 -39 21 -59t54 -20q32 0 53.5 20.5t21.5 58.5v145h-89v98h199v-243q0 -89 -55.5 -139.5t-129.5 -50.5t-130 50.5t-56 139.5z" />
    <glyph glyph-name="H" unicode="H" horiz-adv-x="463" 
d="M52 0v774h111v-332h137v332h111v-774h-111v345h-137v-345h-111z" />
    <glyph glyph-name="I" unicode="I" horiz-adv-x="222" 
d="M55 0v774h111v-774h-111z" />
    <glyph glyph-name="J" unicode="J" horiz-adv-x="362" 
d="M310 774v-591q0 -80 -51.5 -135t-137.5 -55q-82 0 -145 70l87 70q27 -29 61 -29q28 0 51.5 21.5t23.5 72.5v576h111z" />
    <glyph glyph-name="K" unicode="K" horiz-adv-x="463" 
d="M52 0v774h111v-353h2l162 353h111l-151 -310l179 -464h-117l-126 343l-60 -111v-232h-111z" />
    <glyph glyph-name="L" unicode="L" 
d="M52 0v774h111v-663h220v-111h-331z" />
    <glyph glyph-name="M" unicode="M" horiz-adv-x="604" 
d="M52 0v774h107l142 -410h2l142 410h107v-774h-111v471h-2l-110 -333h-55l-109 333h-2v-471h-111z" />
    <glyph glyph-name="N" unicode="N" horiz-adv-x="483" 
d="M48 0v774h106l168 -466h2v466h111v-774h-105l-169 465h-2v-465h-111z" />
    <glyph glyph-name="O" unicode="O" horiz-adv-x="463" 
d="M46 183v408q0 89 56 139t130 50t129.5 -50t55.5 -139v-408q0 -89 -55.5 -139.5t-129.5 -50.5t-130 50.5t-56 139.5zM157 591v-408q0 -39 21 -59t54 -20q32 0 53.5 20.5t21.5 58.5v408q0 38 -21.5 58.5t-53.5 20.5q-33 0 -54 -20t-21 -59z" />
    <glyph glyph-name="P" unicode="P" horiz-adv-x="442" 
d="M52 0v774h166q93 0 144 -54q28 -30 39 -71t11 -111q0 -105 -32 -155q-49 -81 -160 -81h-57v-302h-111zM163 670v-263h53q27 0 44.5 7t27 16t14 29t5.5 34.5t1 43.5t-0.5 43t-5 34.5t-13 30.5t-26 17.5t-42.5 7.5h-58z" />
    <glyph glyph-name="Q" unicode="Q" horiz-adv-x="463" 
d="M46 183v408q0 89 56 139t130 50t129.5 -50t55.5 -139v-408q0 -47 -16 -80l69 -55l-57 -68l-65 54q-52 -41 -116 -41q-74 0 -130 50.5t-56 139.5zM157 591v-408q0 -39 21 -59t54 -20q14 0 23 5l-50 40l57 67l45 -36v3v408q0 38 -21.5 58.5t-53.5 20.5q-33 0 -54 -20
t-21 -59z" />
    <glyph glyph-name="R" unicode="R" horiz-adv-x="463" 
d="M52 0v774h178q196 0 196 -227q0 -141 -96 -194l120 -353h-117l-104 330h-66v-330h-111zM163 670v-242h63q54 0 71.5 28.5t17.5 92.5t-18.5 92.5t-75.5 28.5h-58z" />
    <glyph glyph-name="S" unicode="S" horiz-adv-x="441" 
d="M411 605v-54h-111v25q0 41 -19 67.5t-59 26.5q-75 0 -75 -100q0 -48 11 -68t52 -36l85 -33q69 -26 92.5 -73.5t23.5 -138.5q0 -228 -191 -228q-81 0 -135.5 53t-54.5 131v41h111v-34q0 -34 19.5 -57t59.5 -23q52 0 66 27t14 89q0 60 -11.5 80t-52.5 37l-79 33
q-69 28 -95 74.5t-26 123.5q0 93 49 152.5t141 59.5q80 0 132.5 -53.5t52.5 -121.5z" />
    <glyph glyph-name="T" unicode="T" horiz-adv-x="361" 
d="M125 0v670h-128v104h367v-104h-128v-670h-111z" />
    <glyph glyph-name="U" unicode="U" horiz-adv-x="463" 
d="M411 774v-600q0 -75 -52.5 -128t-126.5 -53t-127 52.5t-53 128.5v600h111v-589q0 -40 19 -60.5t50 -20.5t49.5 20.5t18.5 60.5v589h111z" />
    <glyph glyph-name="V" unicode="V" horiz-adv-x="442" 
d="M428 774l-158 -774h-98l-158 774h118l88 -540h2l89 540h117z" />
    <glyph glyph-name="W" unicode="W" horiz-adv-x="645" 
d="M627 774l-115 -774h-104l-85 502h-2l-84 -502h-104l-116 774h118l55 -491h2l87 491h85l90 -503h3l53 503h117z" />
    <glyph glyph-name="X" unicode="X" horiz-adv-x="423" 
d="M-2 0l156 405l-144 369h117l84 -229l85 229h117l-148 -369l160 -405h-117l-97 261l-96 -261h-117z" />
    <glyph glyph-name="Y" unicode="Y" horiz-adv-x="422" 
d="M155 0v327l-152 447h118l89 -308h2l89 308h117l-152 -447v-327h-111z" />
    <glyph glyph-name="Z" unicode="Z" horiz-adv-x="362" 
d="M16 0v98l209 572h-198v104h319v-88l-213 -582h213v-104h-330z" />
    <glyph glyph-name="bracketleft" unicode="[" horiz-adv-x="241" 
d="M233 774v-65h-72v-752h72v-66h-170v883h170z" />
    <glyph glyph-name="backslash" unicode="\" horiz-adv-x="241" 
d="M92 780l144 -787h-87l-144 787h87z" />
    <glyph glyph-name="bracketright" unicode="]" horiz-adv-x="241" 
d="M9 -109v66h71v752h-71v65h169v-883h-169z" />
    <glyph glyph-name="asciicircum" unicode="^" horiz-adv-x="652" 
d="M54 308l236 466h72l236 -466h-87l-185 368l-185 -368h-87z" />
    <glyph glyph-name="underscore" unicode="_" horiz-adv-x="543" 
d="M0 -136v54h543v-54h-543z" />
    <glyph glyph-name="grave" unicode="`" horiz-adv-x="202" 
d="M74 777l98 -153h-72l-143 153h117z" />
    <glyph glyph-name="a" unicode="a" 
d="M255 0v57h-2q-24 -34 -46.5 -49t-59.5 -15q-49 0 -84.5 32.5t-35.5 114.5q0 99 37.5 143t137.5 44q8 0 26 -1.5t27 -1.5v58q0 65 -55 65q-22 0 -40.5 -15t-22.5 -41h-108q6 76 50 120q49 47 121 47t119 -45.5t47 -128.5v-384h-111zM255 162v75q-18 3 -30 3q-87 0 -87 -78
q0 -32 15.5 -51.5t42.5 -19.5q28 0 43.5 18.5t15.5 52.5z" />
    <glyph glyph-name="b" unicode="b" horiz-adv-x="423" 
d="M46 0v774h111v-273h2q38 57 102 57q66 0 99 -50q17 -28 17 -134v-210q0 -85 -18 -118q-29 -53 -97 -53q-26 0 -46.5 8.5t-30.5 18.5t-28 30v-50h-111zM266 179v203q0 65 -54 65q-24 0 -39.5 -17t-15.5 -43v-214q0 -30 15 -49.5t40 -19.5q54 0 54 75z" />
    <glyph glyph-name="c" unicode="c" 
d="M163 384v-225q0 -26 14.5 -40.5t39.5 -14.5q50 0 55 56h111q0 -70 -45 -118q-47 -49 -121 -49q-49 0 -86.5 21.5t-57.5 58.5q-21 39 -21 112v181q0 73 21 112q20 37 57.5 58.5t86.5 21.5q76 0 121 -49t45 -127h-111q0 65 -55 65q-25 0 -39.5 -16.5t-14.5 -46.5z" />
    <glyph glyph-name="d" unicode="d" horiz-adv-x="423" 
d="M266 0v50q-18 -20 -28 -30t-30.5 -18.5t-46.5 -8.5q-68 0 -97 53q-18 33 -18 118v210q0 106 17 134q33 50 99 50q64 0 102 -57h2v273h111v-774h-111zM157 382v-203q0 -75 54 -75q25 0 40 19.5t15 49.5v214q0 26 -16 43t-39 17q-54 0 -54 -65z" />
    <glyph glyph-name="e" unicode="e" 
d="M366 234h-219v-75q0 -26 14 -40.5t40 -14.5q49 0 54 56h111q0 -71 -44 -118q-49 -49 -121 -49q-49 0 -86.5 21.5t-57.5 58.5q-21 37 -21 112v181q0 75 21 112q20 37 57.5 58.5t86.5 21.5q75 0 120 -49t45 -123v-152zM147 384v-63h108v63q0 63 -54 63t-54 -63z" />
    <glyph glyph-name="f" unicode="f" horiz-adv-x="241" 
d="M60 0v464h-55v87h55v75q0 75 41 111.5t101 36.5h51v-104h-50q-32 0 -32 -38v-81h82v-87h-82v-464h-111z" />
    <glyph glyph-name="g" unicode="g" horiz-adv-x="423" 
d="M46 -64h111q1 -22 16 -38t42 -16q51 0 51 59v109h-2q-38 -57 -103 -57q-68 0 -97 53q-18 33 -18 118v210q0 106 17 134q33 50 99 50q25 0 45.5 -8.5t30.5 -18.5t28 -30v50h111v-618q0 -64 -42.5 -113t-123.5 -49q-60 0 -107.5 39.5t-57.5 125.5zM157 372v-202
q0 -66 54 -66q23 0 39 17t16 43v214q0 30 -15 49.5t-40 19.5q-54 0 -54 -75z" />
    <glyph glyph-name="h" unicode="h" horiz-adv-x="423" 
d="M46 0v774h111v-276h2q39 60 104 60q47 0 80.5 -33t33.5 -102v-423h-111v382q0 30 -14 47.5t-40 17.5q-55 0 -55 -76v-371h-111z" />
    <glyph glyph-name="i" unicode="i" horiz-adv-x="202" 
d="M46 0v551h111v-551h-111zM46 663v111h111v-111h-111z" />
    <glyph glyph-name="j" unicode="j" horiz-adv-x="202" 
d="M46 -17v568h111v-610q0 -79 -50 -121.5t-131 -42.5v105q40 0 55 20.5t15 80.5zM46 663v111h111v-111h-111z" />
    <glyph glyph-name="k" unicode="k" horiz-adv-x="423" 
d="M46 0v774h111v-463h2l133 240h111l-131 -224l158 -327h-120l-100 238l-53 -84v-154h-111z" />
    <glyph glyph-name="l" unicode="l" horiz-adv-x="123" 
d="M117 0h-112v783h112v-783z" />
    <glyph glyph-name="m" unicode="m" horiz-adv-x="643" 
d="M46 0v551h111v-53h2q39 60 104 60q58 0 99 -56q24 28 49.5 42t65.5 14q48 0 84.5 -33.5t36.5 -101.5v-423h-111v382q0 30 -14.5 47.5t-39.5 17.5q-30 0 -43 -19t-13 -57v-371h-111v382q0 30 -14 47.5t-40 17.5q-55 0 -55 -76v-371h-111z" />
    <glyph glyph-name="n" unicode="n" horiz-adv-x="423" 
d="M46 0v551h111v-53h2q39 60 104 60q47 0 80.5 -33t33.5 -102v-423h-111v382q0 30 -14 47.5t-40 17.5q-55 0 -55 -76v-371h-111z" />
    <glyph glyph-name="o" unicode="o" 
d="M36 185v181q0 75 21 112q20 37 57.5 58.5t86.5 21.5t87 -21.5t58 -58.5t20 -112v-181q0 -75 -20 -112t-58 -58.5t-87 -21.5t-86.5 21.5t-57.5 58.5q-21 37 -21 112zM147 384v-217q0 -63 54 -63t54 63v217q0 63 -54 63t-54 -63z" />
    <glyph glyph-name="p" unicode="p" horiz-adv-x="423" 
d="M46 -223v774h111v-50q18 20 28 30t30.5 18.5t46.5 8.5q68 0 97 -53q18 -32 18 -118v-210q0 -106 -17 -134q-33 -50 -99 -50q-64 0 -102 57h-2v-273h-111zM266 170v202q0 75 -54 75q-25 0 -40 -19.5t-15 -49.5v-214q0 -26 15.5 -43t39.5 -17q54 0 54 66z" />
    <glyph glyph-name="q" unicode="q" horiz-adv-x="423" 
d="M266 -223v273h-2q-38 -57 -102 -57q-66 0 -99 50q-17 28 -17 134v210q0 86 18 118q29 53 97 53q26 0 46.5 -8.5t30.5 -18.5t28 -30v50h111v-774h-111zM157 372v-202q0 -66 54 -66q23 0 39 17t16 43v214q0 30 -15 49.5t-40 19.5q-54 0 -54 -75z" />
    <glyph glyph-name="r" unicode="r" horiz-adv-x="302" 
d="M46 0v551h111v-59q38 34 69.5 50t76.5 16v-118q-15 7 -33 7q-43 0 -78 -29.5t-35 -90.5v-327h-111z" />
    <glyph glyph-name="s" unicode="s" horiz-adv-x="383" 
d="M351 397h-104q-1 27 -17 41.5t-40 14.5q-25 0 -39.5 -16.5t-14.5 -38.5q0 -19 9 -32t38 -25l65 -26q109 -41 109 -155q0 -70 -47.5 -118.5t-118.5 -48.5q-68 0 -115 44t-50 123h104q10 -62 60 -62q25 0 43.5 16.5t18.5 43.5q0 46 -55 67l-54 20q-111 42 -111 152
q0 69 47.5 115t115.5 46q67 0 111 -46t45 -115z" />
    <glyph glyph-name="t" unicode="t" horiz-adv-x="262" 
d="M180 0h-112v491h-56v88h56v104l112 100v-204h70v-88h-70v-491z" />
    <glyph glyph-name="u" unicode="u" horiz-adv-x="423" 
d="M377 551v-551h-111v53h-2q-39 -60 -104 -60q-47 0 -80.5 33t-33.5 102v423h111v-381q0 -66 54 -66q55 0 55 76v371h111z" />
    <glyph glyph-name="v" unicode="v" horiz-adv-x="383" 
d="M384 551l-144 -551h-98l-143 551h117l74 -352h2l74 352h118z" />
    <glyph glyph-name="w" unicode="w" horiz-adv-x="583" 
d="M582 551l-131 -551h-98l-61 327h-2l-61 -327h-97l-131 551h117l68 -342h2l62 342h87l59 -342h2l66 342h118z" />
    <glyph glyph-name="x" unicode="x" horiz-adv-x="361" 
d="M-12 0l136 282l-129 269h117l68 -156l69 156h117l-131 -269l138 -282h-118l-75 168l-75 -168h-117z" />
    <glyph glyph-name="y" unicode="y" horiz-adv-x="383" 
d="M-1 551h117l76 -343h3l75 343h114l-159 -647q-31 -127 -153 -127h-31v105h25q35 0 50.5 25t33.5 118z" />
    <glyph glyph-name="z" unicode="z" horiz-adv-x="342" 
d="M18 0v88l180 365h-165v98h291v-88l-179 -359h179v-104h-306z" />
    <glyph glyph-name="braceleft" unicode="{" horiz-adv-x="539" 
d="M129 448h1h383v-113h-383h-1q-1 -120 25 -267q6 -37 -16.5 -56.5t-51 -8.5t-35.5 50q-30 170 -28 338q-2 169 28 338q7 39 35.5 50.5t51 -8.5t16.5 -57q-26 -147 -25 -266z" />
    <glyph glyph-name="bar" unicode="|" horiz-adv-x="241" 
d="M77 -7v787h87v-787h-87z" />
    <glyph glyph-name="braceright" unicode="}" horiz-adv-x="539" 
d="M408 448h1q1 119 -25 266q-6 37 16.5 57t51 8.5t35.5 -50.5q30 -169 28 -338q2 -168 -28 -338q-7 -39 -35.5 -50t-51 8.5t-16.5 56.5q26 147 25 267h-1h-383v113h383z" />
    <glyph glyph-name="asciitilde" unicode="~" horiz-adv-x="652" 
d="M538 359l39 -71q-50 -95 -136 -95q-42 0 -120 36q-6 2 -24 10.5t-25.5 11.5t-21 8t-23 7t-17.5 2q-20 0 -39.5 -13t-29.5 -26t-27 -38l-39 70q49 94 136 94q44 0 121 -35q7 -3 23.5 -10.5t25 -11.5t21 -9t22.5 -7t18 -2q20 0 39.5 13.5t29.5 26.5t27 39z" />
    <glyph glyph-name="nbspace" unicode="&#xa0;" horiz-adv-x="272" 
d="M0 0z" />
    <glyph glyph-name="exclamdown" unicode="&#xa1;" horiz-adv-x="261" 
d="M61 -223l42 583h55l42 -583h-139zM75 440v111h111v-111h-111z" />
    <glyph glyph-name="cent" unicode="&#xa2;" horiz-adv-x="318" 
d="M14 328l169 455l107 -13l-185 -361l199 76l-132 -373l45 9l-107 -121l-9 163l31 -41l72 279z" />
    <glyph glyph-name="sterling" unicode="&#xa3;" horiz-adv-x="404" 
d="M14 324v77h60q-41 77 -41 165q0 93 44 153.5t132 60.5q61 0 111 -45.5t50 -131.5v-49h-105v44q0 78 -60 78q-68 0 -68 -111q0 -75 35 -164h126v-77h-101q19 -51 19 -96q0 -57 -34 -118q7 -1 24.5 -4.5t34 -5.5t30.5 -2q43 0 71 35l74 -75q-46 -65 -120 -65
q-20 0 -90 10.5t-95 10.5q-46 0 -86 -17v93q9 6 31 13.5t39 8.5q29 44 29 95q0 52 -25 117h-85z" />
    <glyph glyph-name="currency" unicode="&#xa4;" horiz-adv-x="404" 
d="M4 233l46 45q-38 40 -38 109t37 109l-45 45l45 45l44 -46q42 37 109 37q68 0 110 -37l45 46l43 -45l-45 -44q37 -42 37 -110q0 -69 -37 -109l45 -44l-45 -45l-44 45q-40 -37 -109 -37q-68 0 -109 38l-44 -46zM84 387q0 -49 34.5 -84t83.5 -35t84 35t35 84t-35 83.5
t-84 34.5t-83.5 -34.5t-34.5 -83.5z" />
    <glyph glyph-name="yen" unicode="&#xa5;" horiz-adv-x="404" 
d="M150 0v187h-124v72h124v53h-124v72h107l-129 390h111l86 -308h2l86 308h111l-128 -390h106v-72h-124v-53h124v-72h-124v-187h-104z" />
    <glyph glyph-name="brokenbar" unicode="&#xa6;" horiz-adv-x="241" 
d="M77 -7v299h87v-299h-87zM77 482v298h87v-298h-87z" />
    <glyph glyph-name="section" unicode="&#xa7;" 
d="M353 632v-50h-92v45q0 27 -14.5 46.5t-39.5 19.5q-57 0 -57 -79q0 -40 8 -54.5t43 -36.5l106 -69q38 -24 48.5 -55t10.5 -117q0 -84 -15.5 -115t-78.5 -60q53 -27 67 -56t14 -98q0 -85 -27 -124q-18 -27 -52.5 -42.5t-71.5 -15.5q-80 0 -117.5 48.5t-37.5 106.5v46h92
v-45q0 -29 17 -49t43 -20q33 0 47.5 20.5t14.5 63.5q0 40 -7 56t-28 29l-128 78q-41 25 -51.5 59.5t-10.5 117.5q0 94 19.5 130t80.5 55q-51 25 -64.5 54.5t-13.5 91.5q0 82 42 124.5t107 42.5q58 0 102 -39t44 -109zM147 339v-107q0 -24 16 -41t38 -17t38 17t16 41v107
q0 24 -16 41t-38 17t-38 -17t-16 -41z" />
    <glyph glyph-name="dieresis" unicode="&#xa8;" horiz-adv-x="202" 
d="M-36 637v111h98v-111h-98zM140 637v111h98v-111h-98z" />
    <glyph glyph-name="copyright" unicode="&#xa9;" horiz-adv-x="870" 
d="M41 387q0 163 115.5 278t278.5 115t278 -115t115 -278t-115 -278.5t-278 -115.5t-278.5 115.5t-115.5 278.5zM750 387q0 133 -92.5 227.5t-222.5 94.5t-222.5 -94.5t-92.5 -227.5t92.5 -227.5t222.5 -94.5t222.5 94.5t92.5 227.5zM570 312h71q-14 -76 -67 -123t-125 -47
q-104 0 -168.5 70t-64.5 175q0 108 62 177t168 69q77 0 131 -44t64 -121h-71q-9 40 -43 66.5t-80 26.5q-70 0 -111 -49t-41 -123q0 -71 43 -123t111 -52q46 0 79.5 28.5t41.5 69.5z" />
    <glyph glyph-name="ordfeminine" unicode="&#xaa;" horiz-adv-x="261" 
d="M167 446v33h-2q-15 -20 -29.5 -29t-38.5 -9q-33 0 -57.5 20t-24.5 69q0 60 26 88t92 28q11 0 34 -3v27q0 39 -35 39q-36 0 -41 -33h-71q3 48 32 76q31 28 80 28q47 0 80.5 -27.5t33.5 -76.5v-230h-79zM167 548v40q-14 2 -19 2q-55 0 -55 -48q0 -31 35 -31q18 0 28.5 10.5
t10.5 26.5z" />
    <glyph glyph-name="guillemotleft" unicode="&#xab;" horiz-adv-x="463" 
d="M433 521v-111l-110 -109l110 -109v-110l-221 219zM232 521v-111l-110 -109l110 -109v-110l-221 219z" />
    <glyph glyph-name="logicalnot" unicode="&#xac;" horiz-adv-x="652" 
d="M514 123v217h-463v87h550v-304h-87z" />
    <glyph glyph-name="registered" unicode="&#xae;" horiz-adv-x="870" 
d="M41 387q0 163 115.5 278t278.5 115t278 -115t115 -278t-115 -278.5t-278 -115.5t-278.5 115.5t-115.5 278.5zM750 387q0 133 -92.5 227.5t-222.5 94.5t-222.5 -94.5t-92.5 -227.5t92.5 -227.5t222.5 -94.5t222.5 94.5t92.5 227.5zM286 158v458h174q157 0 157 -129
q0 -115 -117 -128l132 -201h-87l-132 199h-55v-199h-72zM358 551v-129h81q54 0 80.5 16t26.5 52q0 61 -84 61h-104z" />
    <glyph glyph-name="macron" unicode="&#xaf;" horiz-adv-x="202" 
d="M-48 660v65h298v-65h-298z" />
    <glyph glyph-name="degree" unicode="&#xb0;" horiz-adv-x="283" 
d="M20 659q0 50 35.5 85.5t85.5 35.5q51 0 86.5 -35.5t35.5 -85.5q0 -51 -35.5 -86.5t-86.5 -35.5q-50 0 -85.5 35.5t-35.5 86.5zM75 659q0 -28 19 -47.5t47 -19.5t47.5 19.5t19.5 47.5t-19.5 47t-47.5 19t-47 -19t-19 -47z" />
    <glyph glyph-name="plusminus" unicode="&#xb1;" horiz-adv-x="652" 
d="M283 113v175h-232v87h232v175h87v-175h231v-87h-231v-175h-87zM51 0v87h550v-87h-550z" />
    <glyph glyph-name="twosuperior" unicode="&#xb2;" horiz-adv-x="263" 
d="M12 635v39q0 46 34.5 76t85.5 30q49 0 84 -28t35 -70v-36q0 -40 -25 -82l-103 -174h128v-78h-239v59l139 230q13 21 13 42v25q0 16 -10.5 25t-23.5 9t-22 -9t-9 -25v-33h-87z" />
    <glyph glyph-name="threesuperior" unicode="&#xb3;" horiz-adv-x="263" 
d="M109 515v72q32 0 43 7t12 30v46q0 14 -9 23t-23 9q-16 0 -24.5 -10t-8.5 -22v-29h-87v35q0 46 34 75t88 29q56 0 86.5 -32t30.5 -76v-45q0 -27 -8.5 -43.5t-35.5 -31.5q44 -26 44 -79v-56q0 -44 -30 -76.5t-89 -32.5q-50 0 -85 24.5t-35 77.5v37h87v-25q0 -16 9 -26
t24 -10q13 0 22.5 10t9.5 22v57q0 25 -11 32.5t-44 7.5z" />
    <glyph glyph-name="acute" unicode="&#xb4;" horiz-adv-x="202" 
d="M30 624l98 153h118l-144 -153h-72z" />
    <glyph glyph-name="paragraph" unicode="&#xb6;" horiz-adv-x="2212" 
d="M718 462q0 -150 100.5 -260.5t247.5 -127.5v-74q-179 17 -301 149t-122 313t122 313t301 149v-75q-147 -17 -247.5 -127t-100.5 -260zM1425 499v-74h-635v74h635zM584 427v68h-123v2v60l-361 -95l361 -97v61v1h123zM1150 74q148 17 247.5 127.5t99.5 260.5t-99.5 260
t-247.5 127l-1 75q179 -17 300.5 -149t121.5 -313t-121.5 -313t-300.5 -149zM1633 427v68h122v2v60l360 -95l-360 -97v61v1h-122z" />
    <glyph glyph-name="periodcentered" unicode="&#xb7;" horiz-adv-x="202" 
d="M32 324q0 28 20 48.5t49 20.5t49.5 -20.5t20.5 -48.5t-20.5 -49t-49.5 -21q-28 0 -48.5 20.5t-20.5 49.5z" />
    <glyph glyph-name="cedilla" unicode="&#xb8;" horiz-adv-x="202" 
d="M22 -93l70 93h50l-50 -65q22 2 34 2q49 0 70.5 -25t21.5 -57q0 -48 -40.5 -73t-92.5 -25q-44 0 -101 20l18 46q41 -16 71 -16q59 0 59 44q0 18 -14.5 29.5t-34.5 11.5q-23 0 -43 -7z" />
    <glyph glyph-name="onesuperior" unicode="&#xb9;" horiz-adv-x="263" 
d="M101 312v384l-72 -47v78l72 47h87v-462h-87z" />
    <glyph glyph-name="ordmasculine" unicode="&#xba;" horiz-adv-x="261" 
d="M20 549v124q0 47 30 77t80 30t80.5 -30t30.5 -77v-124q0 -47 -30.5 -77.5t-80.5 -30.5t-80 30.5t-30 77.5zM98 671v-121q0 -37 32 -37q33 0 33 37v121q0 38 -33 38q-32 0 -32 -38z" />
    <glyph glyph-name="guillemotright" unicode="&#xbb;" horiz-adv-x="463" 
d="M232 82v110l109 109l-109 109v111l220 -220zM30 82v110l110 109l-110 109v111l221 -220z" />
    <glyph glyph-name="onequarter" unicode="&#xbc;" horiz-adv-x="603" 
d="M20 -18l475 810h65l-475 -810h-65zM84 312v384l-72 -47v78l72 47h87v-462h-87zM472 0v67h-156v68l107 329h87l-102 -325h64v125h87v-125h32v-72h-32v-67h-87z" />
    <glyph glyph-name="onehalf" unicode="&#xbd;" horiz-adv-x="603" 
d="M20 -18l475 810h65l-475 -810h-65zM84 312v384l-72 -47v78l72 47h87v-462h-87zM350 0v59l141 230q13 21 13 43v25q0 15 -10.5 24t-22.5 9q-15 0 -24.5 -9t-9.5 -24v-34h-87v39q0 46 34.5 76t87.5 30q49 0 84 -28t35 -70v-36q0 -43 -25 -82l-103 -174h128v-78h-241z" />
    <glyph glyph-name="threequarters" unicode="&#xbe;" horiz-adv-x="603" 
d="M40 -18l475 810h65l-475 -810h-65zM109 515v72q32 0 43 7t12 30v46q0 14 -9 23t-23 9q-16 0 -24.5 -10t-8.5 -22v-29h-87v35q0 46 34 75t88 29q56 0 86.5 -32t30.5 -76v-45q0 -27 -8.5 -43.5t-35.5 -31.5q44 -26 44 -79v-56q0 -44 -30 -76.5t-89 -32.5q-50 0 -85 24.5
t-35 77.5v37h87v-25q0 -16 9 -26t24 -10q13 0 22.5 10t9.5 22v57q0 25 -11 32.5t-44 7.5zM472 0v67h-156v68l107 329h87l-102 -325h64v125h87v-125h32v-72h-32v-67h-87z" />
    <glyph glyph-name="questiondown" unicode="&#xbf;" 
d="M367 0v-64q0 -68 -49 -116.5t-118 -48.5q-83 0 -128 62q-22 29 -29.5 55.5t-7.5 76.5q0 95 17 124l75 128q19 34 19 56v87h111v-101q0 -44 -28 -88l-69 -113q-14 -24 -14 -63v-58q0 -23 16 -39t38 -16t39.5 15t17.5 40v63h110zM257 551v-111h-111v111h111z" />
    <glyph glyph-name="Agrave" unicode="&#xc0;" horiz-adv-x="442" 
d="M2 0l173 774h92l173 -774h-111l-32 166h-151l-33 -166h-111zM276 271l-54 280h-2l-55 -280h111zM195 962l97 -153h-71l-144 153h118z" />
    <glyph glyph-name="Aacute" unicode="&#xc1;" horiz-adv-x="442" 
d="M2 0l173 774h92l173 -774h-111l-32 166h-151l-33 -166h-111zM276 271l-54 280h-2l-55 -280h111zM151 809l98 153h117l-143 -153h-72z" />
    <glyph glyph-name="Acircumflex" unicode="&#xc2;" horiz-adv-x="442" 
d="M2 0l173 774h92l173 -774h-111l-32 166h-151l-33 -166h-111zM276 271l-54 280h-2l-55 -280h111zM64 809l107 153h102l106 -153h-84l-73 103l-73 -103h-85z" />
    <glyph glyph-name="Atilde" unicode="&#xc3;" horiz-adv-x="442" 
d="M2 0l173 774h92l173 -774h-111l-32 166h-151l-33 -166h-111zM276 271l-54 280h-2l-55 -280h111zM351 945h56q-12 -57 -37 -89t-73 -32q-18 0 -82 21.5t-75 21.5q-22 0 -34.5 -13.5t-13.5 -35.5h-55q23 121 110 121q18 0 81.5 -21.5t74.5 -21.5q46 0 48 49z" />
    <glyph glyph-name="Adieresis" unicode="&#xc4;" horiz-adv-x="442" 
d="M2 0l173 774h92l173 -774h-111l-32 166h-151l-33 -166h-111zM276 271l-54 280h-2l-55 -280h111zM85 822v111h98v-111h-98zM261 822v111h98v-111h-98z" />
    <glyph glyph-name="Aring" unicode="&#xc5;" horiz-adv-x="442" 
d="M2 0l173 774h92l173 -774h-111l-32 166h-151l-33 -166h-111zM276 271l-54 280h-2l-55 -280h111zM111 908q0 45 32.5 77.5t78.5 32.5t78.5 -33t32.5 -77q0 -46 -32.5 -78.5t-78.5 -32.5t-78.5 33t-32.5 78zM155 908q0 -28 19.5 -47.5t47.5 -19.5t47 19.5t19 47.5t-19 47
t-47 19t-47.5 -19t-19.5 -47z" />
    <glyph glyph-name="AE" unicode="&#xc6;" horiz-adv-x="664" 
d="M2 0l220 774h423v-104h-220v-228h191v-104h-191v-227h220v-111h-331v166h-152l-42 -166h-118zM314 271v399h-26l-100 -399h126z" />
    <glyph glyph-name="Ccedilla" unicode="&#xc7;" horiz-adv-x="442" 
d="M142 -93l67 86q-69 6 -116 49.5t-47 133.5v426q0 77 50 127.5t130 50.5q77 0 127.5 -52t50.5 -132v-44h-111v37q0 34 -18.5 57.5t-49.5 23.5q-39 0 -53.5 -23.5t-14.5 -67.5v-395q0 -80 67 -80q27 0 48 19t21 60v38h111v-48q0 -64 -41 -114.5t-103 -62.5l-47 -61
q22 2 34 2q48 0 70 -25t22 -57q0 -48 -41 -73t-93 -25q-41 0 -101 20l19 46q41 -16 70 -16q59 0 59 44q0 18 -14.5 29.5t-34.5 11.5q-22 0 -42 -7z" />
    <glyph glyph-name="Egrave" unicode="&#xc8;" 
d="M52 0v774h331v-104h-220v-228h191v-104h-191v-227h220v-111h-331zM185 962l98 -153h-72l-144 153h118z" />
    <glyph glyph-name="Eacute" unicode="&#xc9;" 
d="M52 0v774h331v-104h-220v-228h191v-104h-191v-227h220v-111h-331zM141 809l98 153h118l-144 -153h-72z" />
    <glyph glyph-name="Ecircumflex" unicode="&#xca;" 
d="M52 0v774h331v-104h-220v-228h191v-104h-191v-227h220v-111h-331zM54 809l107 153h102l107 -153h-85l-73 103l-73 -103h-85z" />
    <glyph glyph-name="Edieresis" unicode="&#xcb;" 
d="M52 0v774h331v-104h-220v-228h191v-104h-191v-227h220v-111h-331zM75 822v111h98v-111h-98zM251 822v111h98v-111h-98z" />
    <glyph glyph-name="Igrave" unicode="&#xcc;" horiz-adv-x="222" 
d="M55 0v774h111v-774h-111zM84 962l98 -153h-72l-144 153h118z" />
    <glyph glyph-name="Iacute" unicode="&#xcd;" horiz-adv-x="222" 
d="M55 0v774h111v-774h-111zM40 809l98 153h117l-143 -153h-72z" />
    <glyph glyph-name="Icircumflex" unicode="&#xce;" horiz-adv-x="222" 
d="M55 0v774h111v-774h-111zM-47 809l107 153h102l106 -153h-84l-73 103l-73 -103h-85z" />
    <glyph glyph-name="Idieresis" unicode="&#xcf;" horiz-adv-x="222" 
d="M55 0v774h111v-774h-111zM-26 822v111h98v-111h-98zM150 822v111h98v-111h-98z" />
    <glyph glyph-name="Eth" unicode="&#xd0;" horiz-adv-x="463" 
d="M52 0v380h-52v72h52v322h164q93 0 144 -53t51 -147v-362q0 -106 -52.5 -159t-151.5 -53h-155zM163 670v-218h76v-72h-76v-276h51q46 0 66 23.5t20 73.5v373q0 48 -19.5 72t-66.5 24h-51z" />
    <glyph glyph-name="Ntilde" unicode="&#xd1;" horiz-adv-x="483" 
d="M48 0v774h106l168 -466h2v466h111v-774h-105l-169 465h-2v-465h-111zM371 945h55q-23 -121 -110 -121q-18 0 -81 21.5t-75 21.5q-46 0 -48 -49h-55q23 121 109 121q18 0 82 -21.5t75 -21.5q22 0 34.5 13.5t13.5 35.5z" />
    <glyph glyph-name="Ograve" unicode="&#xd2;" horiz-adv-x="463" 
d="M46 183v408q0 89 56 139t130 50t129.5 -50t55.5 -139v-408q0 -89 -55.5 -139.5t-129.5 -50.5t-130 50.5t-56 139.5zM157 591v-408q0 -39 21 -59t54 -20q32 0 53.5 20.5t21.5 58.5v408q0 38 -21.5 58.5t-53.5 20.5q-33 0 -54 -20t-21 -59zM204 962l98 -153h-72l-143 153
h117z" />
    <glyph glyph-name="Oacute" unicode="&#xd3;" horiz-adv-x="463" 
d="M46 183v408q0 89 56 139t130 50t129.5 -50t55.5 -139v-408q0 -89 -55.5 -139.5t-129.5 -50.5t-130 50.5t-56 139.5zM157 591v-408q0 -39 21 -59t54 -20q32 0 53.5 20.5t21.5 58.5v408q0 38 -21.5 58.5t-53.5 20.5q-33 0 -54 -20t-21 -59zM161 809l98 153h117l-143 -153
h-72z" />
    <glyph glyph-name="Ocircumflex" unicode="&#xd4;" horiz-adv-x="463" 
d="M46 183v408q0 89 56 139t130 50t129.5 -50t55.5 -139v-408q0 -89 -55.5 -139.5t-129.5 -50.5t-130 50.5t-56 139.5zM157 591v-408q0 -39 21 -59t54 -20q32 0 53.5 20.5t21.5 58.5v408q0 38 -21.5 58.5t-53.5 20.5q-33 0 -54 -20t-21 -59zM74 809l106 153h103l106 -153
h-85l-72 103l-73 -103h-85z" />
    <glyph glyph-name="Otilde" unicode="&#xd5;" horiz-adv-x="463" 
d="M46 183v408q0 89 56 139t130 50t129.5 -50t55.5 -139v-408q0 -89 -55.5 -139.5t-129.5 -50.5t-130 50.5t-56 139.5zM157 591v-408q0 -39 21 -59t54 -20q32 0 53.5 20.5t21.5 58.5v408q0 38 -21.5 58.5t-53.5 20.5q-33 0 -54 -20t-21 -59zM361 945h55q-23 -121 -109 -121
q-18 0 -82 21.5t-75 21.5q-22 0 -34.5 -13.5t-13.5 -35.5h-55q23 121 110 121q18 0 81.5 -21.5t74.5 -21.5q22 0 34.5 13.5t13.5 35.5z" />
    <glyph glyph-name="Odieresis" unicode="&#xd6;" horiz-adv-x="463" 
d="M46 183v408q0 89 56 139t130 50t129.5 -50t55.5 -139v-408q0 -89 -55.5 -139.5t-129.5 -50.5t-130 50.5t-56 139.5zM157 591v-408q0 -39 21 -59t54 -20q32 0 53.5 20.5t21.5 58.5v408q0 38 -21.5 58.5t-53.5 20.5q-33 0 -54 -20t-21 -59zM95 822v111h97v-111h-97z
M271 822v111h97v-111h-97z" />
    <glyph glyph-name="multiply" unicode="&#xd7;" horiz-adv-x="652" 
d="M73 84l192 191l-192 192l62 61l191 -191l192 191l61 -61l-191 -192l191 -191l-61 -62l-192 192l-191 -192z" />
    <glyph glyph-name="Oslash" unicode="&#xd8;" horiz-adv-x="463" 
d="M11 -17l54 112q-19 37 -19 88v408q0 89 56 139t130 50q80 0 135 -56l44 91l41 -24l-54 -112q19 -35 19 -88v-408q0 -89 -55.5 -139.5t-129.5 -50.5q-85 0 -136 57l-44 -91zM159 285l148 312q-3 36 -24 54.5t-51 18.5q-33 0 -54 -20t-21 -59v-306h2zM304 488l-147 -311
q1 -35 22 -54t53 -19t53.5 20.5t21.5 58.5v305h-3z" />
    <glyph glyph-name="Ugrave" unicode="&#xd9;" horiz-adv-x="463" 
d="M411 774v-600q0 -75 -52.5 -128t-126.5 -53t-127 52.5t-53 128.5v600h111v-589q0 -40 19 -60.5t50 -20.5t49.5 20.5t18.5 60.5v589h111zM204 962l98 -153h-72l-143 153h117z" />
    <glyph glyph-name="Uacute" unicode="&#xda;" horiz-adv-x="463" 
d="M411 774v-600q0 -75 -52.5 -128t-126.5 -53t-127 52.5t-53 128.5v600h111v-589q0 -40 19 -60.5t50 -20.5t49.5 20.5t18.5 60.5v589h111zM161 809l98 153h117l-143 -153h-72z" />
    <glyph glyph-name="Ucircumflex" unicode="&#xdb;" horiz-adv-x="463" 
d="M411 774v-600q0 -75 -52.5 -128t-126.5 -53t-127 52.5t-53 128.5v600h111v-589q0 -40 19 -60.5t50 -20.5t49.5 20.5t18.5 60.5v589h111zM74 809l106 153h103l106 -153h-85l-72 103l-73 -103h-85z" />
    <glyph glyph-name="Udieresis" unicode="&#xdc;" horiz-adv-x="463" 
d="M411 774v-600q0 -75 -52.5 -128t-126.5 -53t-127 52.5t-53 128.5v600h111v-589q0 -40 19 -60.5t50 -20.5t49.5 20.5t18.5 60.5v589h111zM95 822v111h97v-111h-97zM271 822v111h97v-111h-97z" />
    <glyph glyph-name="Yacute" unicode="&#xdd;" horiz-adv-x="422" 
d="M155 0v327l-152 447h118l89 -308h2l89 308h117l-152 -447v-327h-111zM140 809l98 153h117l-143 -153h-72z" />
    <glyph glyph-name="Thorn" unicode="&#xde;" horiz-adv-x="442" 
d="M52 0v774h111v-135h55q93 0 144 -54q28 -30 39 -70.5t11 -111.5q0 -105 -32 -155q-49 -81 -160 -81h-57v-167h-111zM163 535v-263h53q27 0 44.5 7t27 16t14 29t5.5 34.5t1 43.5t-0.5 43t-5 34.5t-13 30.5t-26 17.5t-42.5 7.5h-58z" />
    <glyph glyph-name="germandbls" unicode="&#xdf;" horiz-adv-x="423" 
d="M46 0v600q0 77 42 128.5t122 51.5q167 0 167 -197q0 -58 -12 -83.5t-52 -51.5q64 -36 64 -111v-191q0 -48 -12.5 -80.5t-37 -47t-49.5 -20t-60 -5.5v105q26 0 37 11.5t11 43.5v207q0 36 -48 36v97q27 0 37.5 9t10.5 34v87q0 25 -11 39t-41 14q-31 0 -44 -21.5t-13 -74.5
v-580h-111z" />
    <glyph glyph-name="agrave" unicode="&#xe0;" 
d="M255 0v57h-2q-24 -34 -46.5 -49t-59.5 -15q-49 0 -84.5 32.5t-35.5 114.5q0 99 37.5 143t137.5 44q8 0 26 -1.5t27 -1.5v58q0 65 -55 65q-22 0 -40.5 -15t-22.5 -41h-108q6 76 50 120q49 47 121 47t119 -45.5t47 -128.5v-384h-111zM255 162v75q-18 3 -30 3q-87 0 -87 -78
q0 -32 15.5 -51.5t42.5 -19.5q28 0 43.5 18.5t15.5 52.5zM174 777l98 -153h-72l-143 153h117z" />
    <glyph glyph-name="aacute" unicode="&#xe1;" 
d="M255 0v57h-2q-24 -34 -46.5 -49t-59.5 -15q-49 0 -84.5 32.5t-35.5 114.5q0 99 37.5 143t137.5 44q8 0 26 -1.5t27 -1.5v58q0 65 -55 65q-22 0 -40.5 -15t-22.5 -41h-108q6 76 50 120q49 47 121 47t119 -45.5t47 -128.5v-384h-111zM255 162v75q-18 3 -30 3q-87 0 -87 -78
q0 -32 15.5 -51.5t42.5 -19.5q28 0 43.5 18.5t15.5 52.5zM130 624l98 153h118l-144 -153h-72z" />
    <glyph glyph-name="acircumflex" unicode="&#xe2;" 
d="M255 0v57h-2q-24 -34 -46.5 -49t-59.5 -15q-49 0 -84.5 32.5t-35.5 114.5q0 99 37.5 143t137.5 44q8 0 26 -1.5t27 -1.5v58q0 65 -55 65q-22 0 -40.5 -15t-22.5 -41h-108q6 76 50 120q49 47 121 47t119 -45.5t47 -128.5v-384h-111zM255 162v75q-18 3 -30 3q-87 0 -87 -78
q0 -32 15.5 -51.5t42.5 -19.5q28 0 43.5 18.5t15.5 52.5zM43 624l107 153h102l107 -153h-85l-73 103l-73 -103h-85z" />
    <glyph glyph-name="atilde" unicode="&#xe3;" 
d="M255 0v57h-2q-24 -34 -46.5 -49t-59.5 -15q-49 0 -84.5 32.5t-35.5 114.5q0 99 37.5 143t137.5 44q8 0 26 -1.5t27 -1.5v58q0 65 -55 65q-22 0 -40.5 -15t-22.5 -41h-108q6 76 50 120q49 47 121 47t119 -45.5t47 -128.5v-384h-111zM255 162v75q-18 3 -30 3q-87 0 -87 -78
q0 -32 15.5 -51.5t42.5 -19.5q28 0 43.5 18.5t15.5 52.5zM330 760h56q-23 -121 -110 -121q-18 0 -81.5 22t-74.5 22q-22 0 -34.5 -13.5t-13.5 -35.5h-56q24 120 110 120q18 0 82 -21.5t75 -21.5q22 0 34 13.5t13 35.5z" />
    <glyph glyph-name="adieresis" unicode="&#xe4;" 
d="M255 0v57h-2q-24 -34 -46.5 -49t-59.5 -15q-49 0 -84.5 32.5t-35.5 114.5q0 99 37.5 143t137.5 44q8 0 26 -1.5t27 -1.5v58q0 65 -55 65q-22 0 -40.5 -15t-22.5 -41h-108q6 76 50 120q49 47 121 47t119 -45.5t47 -128.5v-384h-111zM255 162v75q-18 3 -30 3q-87 0 -87 -78
q0 -32 15.5 -51.5t42.5 -19.5q28 0 43.5 18.5t15.5 52.5zM64 637v111h98v-111h-98zM240 637v111h98v-111h-98z" />
    <glyph glyph-name="aring" unicode="&#xe5;" 
d="M255 0v57h-2q-24 -34 -46.5 -49t-59.5 -15q-49 0 -84.5 32.5t-35.5 114.5q0 99 37.5 143t137.5 44q8 0 26 -1.5t27 -1.5v58q0 65 -55 65q-22 0 -40.5 -15t-22.5 -41h-108q6 76 50 120q49 47 121 47t119 -45.5t47 -128.5v-384h-111zM255 162v75q-18 3 -30 3q-87 0 -87 -78
q0 -32 15.5 -51.5t42.5 -19.5q28 0 43.5 18.5t15.5 52.5zM90 717q0 46 32.5 78.5t78.5 32.5t78.5 -33t32.5 -78t-32.5 -77.5t-78.5 -32.5q-45 0 -78 32.5t-33 77.5zM135 717q0 -28 19 -47t47 -19t47 19t19 47t-19 47.5t-47 19.5t-47 -19.5t-19 -47.5z" />
    <glyph glyph-name="ae" unicode="&#xe6;" horiz-adv-x="622" 
d="M586 386v-152h-220v-75q0 -26 14.5 -40.5t40.5 -14.5q49 0 54 56h111q0 -72 -46.5 -118.5t-118.5 -48.5q-52 -1 -89.5 21.5t-55.5 57.5q-40 -79 -129 -79q-49 0 -84.5 32.5t-35.5 114.5q0 99 37.5 143t137.5 44q8 0 26 -1.5t27 -1.5v58q0 65 -55 65q-22 0 -40.5 -15
t-22.5 -41h-108q5 75 51 121t120 46q62 0 110 -40q45 40 111 40q75 0 120 -49t45 -123zM366 384v-63h109v63q0 30 -14.5 46.5t-39.5 16.5q-26 0 -40.5 -16.5t-14.5 -46.5zM255 162v75q-18 3 -30 3q-87 0 -87 -78q0 -32 15.5 -51.5t42.5 -19.5q28 0 43.5 18.5t15.5 52.5z" />
    <glyph glyph-name="ccedilla" unicode="&#xe7;" horiz-adv-x="1328" 
d="M664 -152v579l-480 -91l-44 -84v-252h-79v265l52 142q421 79 551 102v274h28v-270l16 2q53 12 91 35.5t73 57.5t46 42q84 86 125.5 109.5t84.5 23.5q27 0 66 -19t46 -55l27 -185v-524h-79v500q-13 110 -27 167q-6 26 -30 29t-45 -6l-22 -10q-98 -83 -168 -154
q-32 -32 -74 -54t-68 -28l-26 -6l-36 -6v-584h-28z" />
    <glyph glyph-name="egrave" unicode="&#xe8;" 
d="M366 234h-219v-75q0 -26 14 -40.5t40 -14.5q49 0 54 56h111q0 -71 -44 -118q-49 -49 -121 -49q-49 0 -86.5 21.5t-57.5 58.5q-21 37 -21 112v181q0 75 21 112q20 37 57.5 58.5t86.5 21.5q75 0 120 -49t45 -123v-152zM147 384v-63h108v63q0 63 -54 63t-54 -63zM174 777
l98 -153h-72l-143 153h117z" />
    <glyph glyph-name="eacute" unicode="&#xe9;" 
d="M366 234h-219v-75q0 -26 14 -40.5t40 -14.5q49 0 54 56h111q0 -71 -44 -118q-49 -49 -121 -49q-49 0 -86.5 21.5t-57.5 58.5q-21 37 -21 112v181q0 75 21 112q20 37 57.5 58.5t86.5 21.5q75 0 120 -49t45 -123v-152zM147 384v-63h108v63q0 63 -54 63t-54 -63zM130 624
l98 153h118l-144 -153h-72z" />
    <glyph glyph-name="ecircumflex" unicode="&#xea;" 
d="M366 234h-219v-75q0 -26 14 -40.5t40 -14.5q49 0 54 56h111q0 -71 -44 -118q-49 -49 -121 -49q-49 0 -86.5 21.5t-57.5 58.5q-21 37 -21 112v181q0 75 21 112q20 37 57.5 58.5t86.5 21.5q75 0 120 -49t45 -123v-152zM147 384v-63h108v63q0 63 -54 63t-54 -63zM43 624
l107 153h102l107 -153h-85l-73 103l-73 -103h-85z" />
    <glyph glyph-name="edieresis" unicode="&#xeb;" 
d="M366 234h-219v-75q0 -26 14 -40.5t40 -14.5q49 0 54 56h111q0 -71 -44 -118q-49 -49 -121 -49q-49 0 -86.5 21.5t-57.5 58.5q-21 37 -21 112v181q0 75 21 112q20 37 57.5 58.5t86.5 21.5q75 0 120 -49t45 -123v-152zM147 384v-63h108v63q0 63 -54 63t-54 -63zM64 637v111
h98v-111h-98zM240 637v111h98v-111h-98z" />
    <glyph glyph-name="igrave" unicode="&#xec;" horiz-adv-x="202" 
d="M46 0v551h111v-551h-111zM74 777l98 -153h-72l-143 153h117z" />
    <glyph glyph-name="iacute" unicode="&#xed;" horiz-adv-x="202" 
d="M46 0v551h111v-551h-111zM30 624l98 153h118l-144 -153h-72z" />
    <glyph glyph-name="icircumflex" unicode="&#xee;" horiz-adv-x="202" 
d="M46 0v551h111v-551h-111zM-57 624l107 153h102l107 -153h-85l-73 103l-73 -103h-85z" />
    <glyph glyph-name="idieresis" unicode="&#xef;" horiz-adv-x="202" 
d="M46 0v551h111v-551h-111zM-36 637v111h98v-111h-98zM140 637v111h98v-111h-98z" />
    <glyph glyph-name="eth" unicode="&#xf0;" 
d="M93 661l75 35q-29 25 -83 46l90 48q50 -17 87 -51l74 35l30 -44l-68 -31q68 -91 68 -256v-258q0 -75 -20 -112t-58 -58.5t-87 -21.5t-86.5 21.5t-57.5 58.5q-21 37 -21 112v181q0 75 21 112q20 37 57.5 58.5t86.5 21.5q32 0 52 -25l2 2q-19 80 -51 120l-80 -38zM147 384
v-217q0 -63 54 -63t54 63v217q0 63 -54 63t-54 -63z" />
    <glyph glyph-name="ograve" unicode="&#xf2;" 
d="M36 185v181q0 75 21 112q20 37 57.5 58.5t86.5 21.5t87 -21.5t58 -58.5t20 -112v-181q0 -75 -20 -112t-58 -58.5t-87 -21.5t-86.5 21.5t-57.5 58.5q-21 37 -21 112zM147 384v-217q0 -63 54 -63t54 63v217q0 63 -54 63t-54 -63zM174 777l98 -153h-72l-143 153h117z" />
    <glyph glyph-name="oacute" unicode="&#xf3;" 
d="M36 185v181q0 75 21 112q20 37 57.5 58.5t86.5 21.5t87 -21.5t58 -58.5t20 -112v-181q0 -75 -20 -112t-58 -58.5t-87 -21.5t-86.5 21.5t-57.5 58.5q-21 37 -21 112zM147 384v-217q0 -63 54 -63t54 63v217q0 63 -54 63t-54 -63zM130 624l98 153h118l-144 -153h-72z" />
    <glyph glyph-name="ocircumflex" unicode="&#xf4;" 
d="M36 185v181q0 75 21 112q20 37 57.5 58.5t86.5 21.5t87 -21.5t58 -58.5t20 -112v-181q0 -75 -20 -112t-58 -58.5t-87 -21.5t-86.5 21.5t-57.5 58.5q-21 37 -21 112zM147 384v-217q0 -63 54 -63t54 63v217q0 63 -54 63t-54 -63zM43 624l107 153h102l107 -153h-85l-73 103
l-73 -103h-85z" />
    <glyph glyph-name="odieresis" unicode="&#xf6;" 
d="M36 185v181q0 75 21 112q20 37 57.5 58.5t86.5 21.5t87 -21.5t58 -58.5t20 -112v-181q0 -75 -20 -112t-58 -58.5t-87 -21.5t-86.5 21.5t-57.5 58.5q-21 37 -21 112zM147 384v-217q0 -63 54 -63t54 63v217q0 63 -54 63t-54 -63zM64 637v111h98v-111h-98zM240 637v111h98
v-111h-98z" />
    <glyph glyph-name="divide" unicode="&#xf7;" horiz-adv-x="652" 
d="M51 232v86h550v-86h-550zM257 50q0 29 20.5 49.5t48.5 20.5t49 -21t21 -49t-21 -49t-49 -21t-48.5 20.5t-20.5 49.5zM257 500q0 29 20.5 49.5t48.5 20.5t49 -21t21 -49t-21 -49t-49 -21t-48.5 20.5t-20.5 49.5z" />
    <glyph glyph-name="oslash" unicode="&#xf8;" 
d="M4 -13l54 90q-22 41 -22 95v207q0 79 45 129t120 50q71 0 115 -46l45 75l37 -23l-53 -90q21 -42 21 -95v-207q0 -79 -45 -129t-120 -50q-71 0 -115 46l-45 -75zM253 324l-103 -177q6 -43 51 -43q54 0 54 63v157h-2zM149 227l103 177q-6 43 -51 43q-54 0 -54 -63v-157h2z
" />
    <glyph glyph-name="ugrave" unicode="&#xf9;" horiz-adv-x="423" 
d="M377 551v-551h-111v53h-2q-39 -60 -104 -60q-47 0 -80.5 33t-33.5 102v423h111v-381q0 -66 54 -66q55 0 55 76v371h111zM185 777l98 -153h-72l-144 153h118z" />
    <glyph glyph-name="uacute" unicode="&#xfa;" horiz-adv-x="423" 
d="M377 551v-551h-111v53h-2q-39 -60 -104 -60q-47 0 -80.5 33t-33.5 102v423h111v-381q0 -66 54 -66q55 0 55 76v371h111zM141 624l98 153h118l-144 -153h-72z" />
    <glyph glyph-name="ucircumflex" unicode="&#xfb;" horiz-adv-x="423" 
d="M377 551v-551h-111v53h-2q-39 -60 -104 -60q-47 0 -80.5 33t-33.5 102v423h111v-381q0 -66 54 -66q55 0 55 76v371h111zM54 624l107 153h102l107 -153h-85l-73 103l-73 -103h-85z" />
    <glyph glyph-name="udieresis" unicode="&#xfc;" horiz-adv-x="423" 
d="M377 551v-551h-111v53h-2q-39 -60 -104 -60q-47 0 -80.5 33t-33.5 102v423h111v-381q0 -66 54 -66q55 0 55 76v371h111zM75 637v111h98v-111h-98zM251 637v111h98v-111h-98z" />
    <glyph glyph-name="yacute" unicode="&#xfd;" horiz-adv-x="383" 
d="M-1 551h117l76 -343h3l75 343h114l-159 -647q-31 -127 -153 -127h-31v105h25q35 0 50.5 25t33.5 118zM121 624l97 153h118l-144 -153h-71z" />
    <glyph glyph-name="thorn" unicode="&#xfe;" horiz-adv-x="423" 
d="M46 -223v997h111v-273q18 20 28 30t30.5 18.5t46.5 8.5q68 0 97 -53q18 -32 18 -118v-210q0 -106 -17 -134q-33 -50 -99 -50q-64 0 -102 57h-2v-273h-111zM266 170v202q0 75 -54 75q-25 0 -40 -19.5t-15 -49.5v-214q0 -26 15.5 -43t39.5 -17q54 0 54 66z" />
    <glyph glyph-name="ydieresis" unicode="&#xff;" horiz-adv-x="383" 
d="M-1 551h117l76 -343h3l75 343h114l-159 -647q-31 -127 -153 -127h-31v105h25q35 0 50.5 25t33.5 118zM54 637v111h98v-111h-98zM230 637v111h98v-111h-98z" />
    <glyph glyph-name="dotlessi" unicode="&#x131;" horiz-adv-x="202" 
d="M46 0v551h111v-551h-111z" />
    <glyph glyph-name="lslash" unicode="&#x142;" horiz-adv-x="202" 
d="M39 148v187l-54 -48v78l54 48v361h111v-263l54 47v-79l-54 -46v-278q0 -31 11 -42.5t43 -14.5v-105q-84 0 -124.5 32.5t-40.5 122.5z" />
    <glyph glyph-name="OE" unicode="&#x152;" horiz-adv-x="663" 
d="M643 774v-104h-219v-228h191v-104h-191v-227h219v-111h-330v37h-2q-14 -19 -40 -31.5t-53 -12.5q-76 0 -121 53.5t-45 130.5v420q0 77 45 130t121 53q65 0 93 -45h2v39h330zM313 172v430q0 34 -20.5 57.5t-54.5 23.5t-54.5 -23.5t-20.5 -57.5v-430q0 -34 20.5 -57.5
t54.5 -23.5t54.5 23.5t20.5 57.5z" />
    <glyph glyph-name="oe" unicode="&#x153;" horiz-adv-x="622" 
d="M36 185v181q0 75 21 112q20 37 57.5 58.5t86.5 21.5q64 0 110 -37q41 37 110 37q75 0 120 -49t45 -123v-152h-220v-75q0 -26 14.5 -40.5t40.5 -14.5q49 0 54 56h111q0 -71 -45 -118q-47 -49 -120 -49q-78 0 -114 39q-41 -39 -106 -39q-49 0 -86.5 21.5t-57.5 58.5
q-21 37 -21 112zM366 384v-63h109v63q0 30 -14.5 46.5t-39.5 16.5q-26 0 -40.5 -16.5t-14.5 -46.5zM147 384v-217q0 -63 54 -63t54 63v217q0 63 -54 63t-54 -63z" />
    <glyph glyph-name="Scaron" unicode="&#x160;" horiz-adv-x="441" 
d="M411 605v-54h-111v25q0 41 -19 67.5t-59 26.5q-75 0 -75 -100q0 -48 11 -68t52 -36l85 -33q69 -26 92.5 -73.5t23.5 -138.5q0 -228 -191 -228q-81 0 -135.5 53t-54.5 131v41h111v-34q0 -34 19.5 -57t59.5 -23q52 0 66 27t14 89q0 60 -11.5 80t-52.5 37l-79 33
q-69 28 -95 74.5t-26 123.5q0 93 49 152.5t141 59.5q80 0 132.5 -53.5t52.5 -121.5zM378 962l-106 -153h-102l-107 153h85l73 -103l72 103h85z" />
    <glyph glyph-name="scaron" unicode="&#x161;" horiz-adv-x="383" 
d="M351 397h-104q-1 27 -17 41.5t-40 14.5q-25 0 -39.5 -16.5t-14.5 -38.5q0 -19 9 -32t38 -25l65 -26q109 -41 109 -155q0 -70 -47.5 -118.5t-118.5 -48.5q-68 0 -115 44t-50 123h104q10 -62 60 -62q25 0 43.5 16.5t18.5 43.5q0 46 -55 67l-54 20q-111 42 -111 152
q0 69 47.5 115t115.5 46q67 0 111 -46t45 -115zM349 777l-107 -153h-102l-106 153h84l73 -103l73 103h85z" />
    <glyph glyph-name="Ydieresis" unicode="&#x178;" horiz-adv-x="422" 
d="M155 0v327l-152 447h118l89 -308h2l89 308h117l-152 -447v-327h-111zM74 822v111h98v-111h-98zM250 822v111h98v-111h-98z" />
    <glyph glyph-name="Zcaron" unicode="&#x17d;" horiz-adv-x="362" 
d="M16 0v98l209 572h-198v104h319v-88l-213 -582h213v-104h-330zM339 962l-106 -153h-103l-106 153h85l73 -103l72 103h85z" />
    <glyph glyph-name="zcaron" unicode="&#x17e;" horiz-adv-x="342" 
d="M18 0v88l180 365h-165v98h291v-88l-179 -359h179v-104h-306zM329 777l-106 -153h-102l-107 153h85l73 -103l73 103h84z" />
    <glyph glyph-name="florin" unicode="&#x192;" horiz-adv-x="404" 
d="M49 403l12 87h91l25 139q16 87 54 119t97 32q10 0 70 -4l-15 -100l-20 4t-23 3q-29 0 -42.5 -17t-21.5 -64l-19 -112h83l-14 -87h-85l-77 -432q-16 -94 -53.5 -142.5t-118.5 -48.5q-25 0 -57 9l12 102q20 -6 43 -6q53 0 64 65l82 453h-87z" />
    <glyph glyph-name="circumflex" unicode="&#x2c6;" horiz-adv-x="202" 
d="M-57 624l107 153h102l107 -153h-85l-73 103l-73 -103h-85z" />
    <glyph glyph-name="caron" unicode="&#x2c7;" horiz-adv-x="202" 
d="M259 777l-107 -153h-102l-107 153h85l73 -103l73 103h85z" />
    <glyph glyph-name="breve" unicode="&#x2d8;" horiz-adv-x="202" 
d="M213 777h55q-23 -148 -167 -148t-167 148h55q12 -82 112 -82q102 0 112 82z" />
    <glyph glyph-name="dotaccent" unicode="&#x2d9;" horiz-adv-x="202" 
d="M52 637v111h98v-111h-98z" />
    <glyph glyph-name="ring" unicode="&#x2da;" horiz-adv-x="202" 
d="M-10 717q0 46 32.5 78.5t78.5 32.5t78.5 -33t32.5 -78t-32.5 -77.5t-78.5 -32.5q-45 0 -78 32.5t-33 77.5zM35 717q0 -28 19 -47t47 -19t47 19t19 47t-19 47.5t-47 19.5t-47 -19.5t-19 -47.5z" />
    <glyph glyph-name="ogonek" unicode="&#x2db;" horiz-adv-x="202" 
d="M197 -179l15 -41q-42 -23 -105 -23q-47 0 -77.5 27t-30.5 71q0 48 24.5 79t76.5 66h55q-69 -66 -69 -137q0 -25 15.5 -40.5t37.5 -15.5q35 0 58 14z" />
    <glyph glyph-name="tilde" unicode="&#x2dc;" horiz-adv-x="202" 
d="M230 760h56q-23 -121 -110 -121q-18 0 -81.5 22t-74.5 22q-22 0 -34.5 -13.5t-13.5 -35.5h-56q24 120 110 120q18 0 82 -21.5t75 -21.5q22 0 34 13.5t13 35.5z" />
    <glyph glyph-name="hungarumlaut" unicode="&#x2dd;" horiz-adv-x="202" 
d="M-59 624l98 153h118l-144 -153h-72zM117 624l98 153h118l-144 -153h-72z" />
    <glyph glyph-name="endash" unicode="&#x2013;" horiz-adv-x="543" 
d="M0 249v104h543v-104h-543z" />
    <glyph glyph-name="emdash" unicode="&#x2014;" horiz-adv-x="1087" 
d="M0 249v104h1087v-104h-1087z" />
    <glyph glyph-name="quoteleft" unicode="&#x2018;" horiz-adv-x="202" 
d="M157 774v-191h-111v110z" />
    <glyph glyph-name="quoteright" unicode="&#x2019;" horiz-adv-x="202" 
d="M46 583v191h111v-111z" />
    <glyph glyph-name="quotesinglbase" unicode="&#x201a;" horiz-adv-x="202" 
d="M46 -80v191h111v-111z" />
    <glyph glyph-name="quotedblleft" unicode="&#x201c;" horiz-adv-x="302" 
d="M283 774v-191h-111v110zM130 774v-191h-110v110z" />
    <glyph glyph-name="quotedblright" unicode="&#x201d;" horiz-adv-x="302" 
d="M20 583v191h110v-111zM172 583v191h111v-111z" />
    <glyph glyph-name="quotedblbase" unicode="&#x201e;" horiz-adv-x="302" 
d="M20 -80v191h110v-111zM172 -80v191h111v-111z" />
    <glyph glyph-name="dagger" unicode="&#x2020;" 
d="M152 -223v653h-145v98h145v246h98v-246h146v-98h-146v-653h-98z" />
    <glyph glyph-name="daggerdbl" unicode="&#x2021;" 
d="M152 537v237h98v-237h146v-87h-146v-349h146v-87h-146v-237h-98v237h-145v87h145v349h-145v87h145z" />
    <glyph glyph-name="bullet" unicode="&#x2022;" horiz-adv-x="543" 
d="M78 387q0 80 57 136.5t137 56.5t136.5 -57t56.5 -136q0 -80 -56.5 -137t-136.5 -57t-137 57t-57 137z" />
    <glyph glyph-name="ellipsis" unicode="&#x2026;" horiz-adv-x="1087" 
d="M126 0v111h111v-111h-111zM488 0v111h111v-111h-111zM850 0v111h111v-111h-111z" />
    <glyph glyph-name="perthousand" unicode="&#x2030;" horiz-adv-x="584" 
d="M389 76v71q0 41 25 65t68 24q42 0 67 -24t25 -65v-71q0 -37 -25 -60t-67 -23t-67.5 23t-25.5 60zM10 621v70q0 41 25 65t67 24q43 0 68 -24t25 -65v-70q0 -37 -25.5 -60t-67.5 -23t-67 23t-25 60zM179 76v71q0 41 25 65t68 24q42 0 67 -24t25 -65v-71q0 -37 -25 -60
t-67 -23t-67.5 23t-25.5 60zM22 0l265 774h72l-266 -774h-71zM245 142v-55q0 -11 8 -19.5t19 -8.5t19 8.5t8 19.5v55q0 12 -8 20.5t-19 8.5t-19 -8.5t-8 -20.5zM75 687v-55q0 -12 8 -20.5t19 -8.5t19 8.5t8 20.5v55q0 11 -8 19.5t-19 8.5t-19 -8.5t-8 -19.5zM454 142v-55
q0 -11 8.5 -19.5t19.5 -8.5t19 8.5t8 19.5v55q0 12 -8 20.5t-19 8.5t-19.5 -8.5t-8.5 -20.5z" />
    <glyph glyph-name="guilsinglleft" unicode="&#x2039;" horiz-adv-x="262" 
d="M232 521v-111l-110 -109l110 -109v-110l-221 219z" />
    <glyph glyph-name="guilsinglright" unicode="&#x203a;" horiz-adv-x="262" 
d="M30 82v110l110 109l-110 109v111l221 -220z" />
    <glyph glyph-name="fraction" unicode="&#x2044;" horiz-adv-x="182" 
d="M-179 -18l475 810h65l-475 -810h-65z" />
    <glyph glyph-name="trademark" unicode="&#x2122;" horiz-adv-x="1076" 
d="M180 326v376h-138v72h355v-72h-138v-376h-79zM875 326v376h-2l-149 -376h-45l-147 376h-3v-376h-78v448h124l127 -327l127 327h124v-448h-78z" />
    <glyph glyph-name="minus" unicode="&#x2212;" horiz-adv-x="652" 
d="M51 232v86h550v-86h-550z" />
    <glyph glyph-name="radical" unicode="&#x221a;" horiz-adv-x="1303" 
d="M689 0l-630 391l630 392l-98 -287h654v-209h-654z" />
    <glyph glyph-name="integral" unicode="&#x222b;" horiz-adv-x="1303" 
d="M1240 391l-630 -391l98 287h-654v209h654l-98 287z" />
    <glyph glyph-name="fi" unicode="&#xfb01;" horiz-adv-x="442" 
d="M60 0v464h-55v87h55v75q0 75 41 111.5t101 36.5h51v-104h-50q-32 0 -32 -38v-81h82v-87h-82v-464h-111zM286 0v551h111v-551h-111zM286 663v111h111v-111h-111z" />
    <glyph glyph-name="fl" unicode="&#xfb02;" horiz-adv-x="442" 
d="M60 0v464h-55v87h55v75q0 75 41 111.5t101 36.5h51v-104h-50q-32 0 -32 -38v-81h82v-87h-82v-464h-111zM286 148v626h111v-619q0 -31 11 -42.5t43 -14.5v-105q-84 0 -124.5 32.5t-40.5 122.5z" />
  </font>
</defs>
</svg>
