<?xml version="1.0" encoding="UTF-8" standalone="no"?>
<!DOCTYPE svg  PUBLIC '-//W3C//DTD SVG 1.1//EN'  'http://www.w3.org/Graphics/SVG/1.1/DTD/svg11.dtd'>
<svg xmlns="http://www.w3.org/2000/svg" version="1.1">
<defs>
<font id="DINCondensed-Bold" horiz-adv-x="370">
<font-face descent="-200" units-per-em="1000" font-stretch="condensed" x-height="507" font-family="DIN Condensed" unicode-range="U+0020-FB02" ascent="800" cap-height="712" underline-thickness="50" bbox="-52 -250 778 937" panose-1="0 0 5 0 0 0 0 0 0 0" underline-position="-150" font-weight="700"/>
<missing-glyph/>
<glyph unicode=" " glyph-name="space" horiz-adv-x="186"/>
<glyph unicode="!" glyph-name="exclam" d="M69 102h102v-102h-102v102zM56 712h128l-39 -536h-50z" horiz-adv-x="240"/>
<glyph unicode='&quot;' glyph-name="quotedbl" d="M165 712h80v-176h-80v176zM33 712h80v-176h-80v176z" horiz-adv-x="278"/>
<glyph unicode="#" glyph-name="numbersign" d="M239 437h-84l-22 -162h84zM209 215h-84l-29 -215h-68l29 215h-51v60h59l22 162h-50v60h58l29 215h68l-29 -215h84l29 215h68l-29 -215h51v-60h-59l-22 -162h50v-60h-58l-29 -215h-68z" horiz-adv-x="372"/>
<glyph unicode="$" glyph-name="dollar" d="M161 -6q-33 4 -60.5 18t-47.5 36t-31 51t-11 62v40h102v-36q0 -23 11 -43t37 -26v230l-34 14q-66 27 -88.5 71.5t-22.5 111.5q0 76 36 130.5t109 64.5v75h51v-75q34 -4 61.5 -19t47 -37.5t30 -49.5t10.5 -55v-50h-102v23q0 32 -10.5 55t-36.5 31v-201l42 -17 q34 -13 55 -30.5t32.5 -41t15.5 -54t4 -69.5q0 -43 -7.5 -79.5t-25 -64t-46 -44.5t-70.5 -21v-84h-51v84zM212 96q32 8 39.5 35t7.5 71q0 25 -1.5 42t-7 28t-14.5 18.5t-24 13.5v-208zM161 616q-26 -10 -34.5 -35t-8.5 -57q0 -36 7 -54.5t36 -32.5v179z" horiz-adv-x="372"/>
<glyph unicode="%" glyph-name="percent" d="M265 712h66l-244 -712h-66zM258 -6q-39 0 -62 21t-23 55v65q0 38 23 60t62 22t62 -22t23 -60v-65q0 -34 -23 -55t-62 -21zM233 80q0 -11 7.5 -18.5t17.5 -7.5t17.5 7.5t7.5 18.5v51q0 11 -7.5 18.5t-17.5 7.5t-17.5 -7.5t-7.5 -18.5v-51zM94 495q-39 0 -62 21t-23 55v65 q0 38 23 60t62 22t62 -22t23 -60v-65q0 -34 -23 -55t-62 -21zM94 555q10 0 17.5 7.5t7.5 18.5v51q0 11 -7.5 18.5t-17.5 7.5t-17.5 -7.5t-7.5 -18.5v-51q0 -11 7.5 -18.5t17.5 -7.5z" horiz-adv-x="352"/>
<glyph unicode="&amp;" glyph-name="ampersand" d="M162 506q0 -23 11 -49.5t28 -53.5q9 9 20 20.5t20 25.5t15 30.5t6 35.5t-13 35t-36 16t-37 -18.5t-14 -41.5zM126 164q0 -37 21.5 -63.5t54.5 -26.5q23 0 44 14.5t32 28.5l-98 156q-23 -23 -38.5 -49.5t-15.5 -59.5zM319 54q-30 -30 -62.5 -45t-73.5 -15q-30 0 -57 12 t-47 33.5t-31.5 52t-11.5 67.5q0 59 28 103t70 82q-27 38 -44.5 78.5t-17.5 85.5q0 28 9 53.5t26 44t43 29.5t61 11q33 0 58 -10.5t42 -28t26 -41t9 -49.5q0 -50 -31 -95.5t-73 -83.5q19 -29 43.5 -70t50.5 -79l55 75l63 -44l-76 -98l77 -122h-102z" horiz-adv-x="481"/>
<glyph unicode="&apos;" glyph-name="quotesingle" d="M53 712h80v-176h-80v176z" horiz-adv-x="186"/>
<glyph unicode="(" glyph-name="parenleft" d="M203 712q-29 -103 -40 -213.5t-11 -220.5q0 -102 13.5 -196t37.5 -182h-34q-30 43 -52.5 94t-37 104t-22 106.5t-7.5 101.5q0 51 8 105.5t23.5 107.5t37.5 102t50 91h34z" horiz-adv-x="222"/>
<glyph unicode=")" glyph-name="parenright" d="M19 -100q29 103 40 213.5t11 220.5q0 102 -13.5 196t-37.5 182h34q30 -44 52.5 -94.5t37 -103.5t22 -106.5t7.5 -101.5q0 -51 -8 -105.5t-23.5 -107.5t-37.5 -102t-50 -91h-34z" horiz-adv-x="222"/>
<glyph unicode="*" glyph-name="asterisk" d="M59 656l98 -60l-4 116h64l-4 -116l98 60l28 -52l-100 -56l100 -55l-28 -53l-98 60l4 -116h-64l4 116l-98 -60l-28 53l100 55l-100 56z"/>
<glyph unicode="+" glyph-name="plus" d="M260 506h80v-213h213v-80h-213v-213h-80v213h-213v80h213v213z" horiz-adv-x="600"/>
<glyph unicode="," glyph-name="comma" d="M42 102h102v-102l-102 -74v176z" horiz-adv-x="186"/>
<glyph unicode="-" glyph-name="hyphen" d="M44 328h301v-102h-301v102z" horiz-adv-x="389"/>
<glyph unicode="." glyph-name="period" d="M42 102h102v-102h-102v102z" horiz-adv-x="186"/>
<glyph unicode="/" glyph-name="slash" d="M137 718h80l-132 -724h-80z" horiz-adv-x="222"/>
<glyph unicode="0" glyph-name="zero" d="M136 147q0 -22 14 -36.5t36 -14.5t36 14.5t14 36.5v418q0 22 -14 36.5t-36 14.5t-36 -14.5t-14 -36.5v-418zM34 565q0 36 12.5 64t33.5 48t48.5 30.5t57.5 10.5t57.5 -10.5t48.5 -30.5t33.5 -48t12.5 -64v-418q0 -36 -12.5 -64t-33.5 -48t-48.5 -30.5t-57.5 -10.5 t-57.5 10.5t-48.5 30.5t-33.5 48t-12.5 64v418z" horiz-adv-x="372"/>
<glyph unicode="1" glyph-name="one" d="M155 604l-102 -75v108l102 75h102v-712h-102v604z" horiz-adv-x="372"/>
<glyph unicode="2" glyph-name="two" d="M34 96l184 347q14 26 16 45.5t2 48.5q0 13 -1 27.5t-5.5 25.5t-14.5 18.5t-29 7.5q-23 0 -36.5 -13t-13.5 -38v-58h-102v56q0 32 12 60t32.5 49t48.5 33.5t60 12.5q40 0 68.5 -14.5t47 -39.5t27 -57t8.5 -68q0 -26 -1 -43.5t-4 -33.5t-10 -32t-19 -39l-150 -289h184v-102 h-304v96z" horiz-adv-x="372"/>
<glyph unicode="3" glyph-name="three" d="M155 412q46 0 63.5 11t17.5 51v92q0 22 -13.5 36t-36.5 14q-27 0 -38.5 -17t-11.5 -33v-58h-102v59q0 31 12 59t33 48t49 32t60 12q42 0 69.5 -16.5t41.5 -33.5q10 -12 17.5 -24.5t12 -29t7 -40t2.5 -57.5q0 -37 -1.5 -60t-8 -38.5t-19 -26.5t-34.5 -24q24 -15 36.5 -28 t18.5 -30.5t7 -42t1 -62.5q0 -35 -1.5 -58t-4.5 -38.5t-8 -26.5t-13 -23q-19 -28 -49 -46.5t-77 -18.5q-24 0 -51 8t-49 26t-36.5 47t-14.5 71v58h102v-53q0 -24 13.5 -39.5t36.5 -15.5t36.5 15.5t13.5 41.5v102q0 21 -3.5 34t-12.5 20.5t-24.5 10t-40.5 2.5v90z" horiz-adv-x="372"/>
<glyph unicode="4" glyph-name="four" d="M212 106h-203v96l147 510h108l-153 -510h101v203h102v-203h49v-96h-49v-106h-102v106z" horiz-adv-x="372"/>
<glyph unicode="5" glyph-name="five" d="M338 616h-202v-192q14 14 36 23.5t49 9.5q52 0 84.5 -32t32.5 -94v-184q0 -36 -12.5 -64t-33.5 -48t-48.5 -30.5t-57.5 -10.5t-57.5 10.5t-48.5 30.5t-33.5 48t-12.5 64v30h102v-26q0 -26 14.5 -40.5t37.5 -14.5t35.5 14t12.5 39v167q0 21 -13.5 36t-34.5 15 q-13 0 -22 -4.5t-15 -10.5t-9.5 -13l-5.5 -11h-90v384h292v-96z" horiz-adv-x="372"/>
<glyph unicode="6" glyph-name="six" d="M236 279q0 23 -15 37t-35 14t-35 -14t-15 -37v-132q0 -23 15 -37t35 -14t35 14t15 37v132zM185 413l2 -2q5 4 15.5 6.5t27.5 2.5q27 0 50 -13t36 -33q7 -11 11 -22t6.5 -29t3.5 -45.5t1 -69.5q0 -35 -1 -57.5t-3.5 -38t-7 -26.5t-11.5 -23q-20 -33 -53.5 -51t-75.5 -18 t-75 18.5t-53 50.5q-8 12 -12.5 23t-7 26.5t-3.5 38t-1 57.5q0 33 1 54.5t3 37t6 28t9 26.5l134 358h114z" horiz-adv-x="372"/>
<glyph unicode="7" glyph-name="seven" d="M236 616h-112v-82h-90v178h304v-102l-173 -610h-108z" horiz-adv-x="372"/>
<glyph unicode="8" glyph-name="eight" d="M236 286q0 21 -15 35.5t-35 14.5t-35 -14.5t-15 -35.5v-140q0 -21 15 -35.5t35 -14.5t35 14.5t15 35.5v140zM34 526q0 29 2 49.5t6.5 35.5t11.5 27t17 25q20 26 50 40.5t65 14.5t65 -14.5t50 -40.5q10 -13 17 -25t11.5 -27t6.5 -35.5t2 -49.5q0 -32 -1 -54t-6 -39 t-15.5 -30.5t-28.5 -28.5q18 -14 28.5 -28t15.5 -33t6 -46.5t1 -67.5q0 -33 -1.5 -54.5t-4.5 -37.5t-8.5 -27t-13.5 -23q-17 -26 -48 -44.5t-76 -18.5t-76 18.5t-48 44.5q-8 12 -13.5 23t-8.5 27t-4.5 37.5t-1.5 54.5q0 40 1 67.5t6 46.5t15.5 33t28.5 28q-18 15 -28.5 28.5 t-15.5 30.5t-6 39t-1 54zM236 566q0 21 -15 35.5t-35 14.5t-35 -14.5t-15 -35.5v-104q0 -21 15 -35.5t35 -14.5t35 14.5t15 35.5v104z" horiz-adv-x="372"/>
<glyph unicode="9" glyph-name="nine" d="M136 433q0 -23 15 -37t35 -14t35 14t15 37v132q0 23 -15 37t-35 14t-35 -14t-15 -37v-132zM187 299l-2 2q-5 -4 -15.5 -6.5t-27.5 -2.5q-27 0 -50 13t-36 33q-7 10 -11 21.5t-6.5 29.5t-3.5 45.5t-1 69.5q0 35 1 57.5t3.5 38t7 26.5t11.5 23q20 33 53.5 51t75.5 18 t75 -18.5t53 -50.5q7 -12 12 -23t7.5 -26.5t3.5 -38t1 -57.5q0 -33 -1 -54.5t-3.5 -37t-6 -28t-8.5 -26.5l-134 -358h-114z" horiz-adv-x="372"/>
<glyph unicode=":" glyph-name="colon" d="M42 329h102v-102h-102v102zM42 102h102v-102h-102v102z" horiz-adv-x="186"/>
<glyph unicode=";" glyph-name="semicolon" d="M42 329h102v-102h-102v102zM42 102h102v-102l-102 -74v176z" horiz-adv-x="186"/>
<glyph unicode="&lt;" glyph-name="less" d="M553 434l-397 -181l397 -181v-80l-506 231v60l506 231v-80z" horiz-adv-x="600"/>
<glyph unicode="=" glyph-name="equal" d="M47 193h506v-80h-506v80zM47 393h506v-80h-506v80z" horiz-adv-x="600"/>
<glyph unicode="&gt;" glyph-name="greater" d="M47 72l397 181l-397 181v80l506 -231v-60l-506 -231v80z" horiz-adv-x="600"/>
<glyph unicode="?" glyph-name="question" d="M134 102h102v-102h-102v102zM32 566q0 31 12 59t33 48.5t49 32.5t60 12q37 0 67.5 -15t50.5 -42q10 -14 16.5 -26t10.5 -25.5t5.5 -30.5t1.5 -40q0 -26 -0.5 -43.5t-2.5 -30.5t-5 -22.5t-8 -17.5l-69 -118q-7 -12 -12 -24.5t-5 -26.5v-80h-102v93q0 22 7 42t18 39l64 104 q8 13 10.5 28t2.5 30v53q0 21 -14.5 36t-35.5 15q-18 0 -35 -13t-17 -38v-58h-102v59z"/>
<glyph unicode="@" glyph-name="at" d="M552 273q-5 -14 -7.5 -26t-2.5 -19q0 -13 5 -21t18 -8q24 0 48 20t43.5 51.5t32 69.5t12.5 74q0 52 -22 96t-59 75.5t-85.5 49t-101.5 17.5q-63 0 -118 -25t-96 -66t-64.5 -95.5t-23.5 -112.5q0 -61 23.5 -114.5t65 -93t97.5 -62.5t121 -23q36 0 72 8.5t68 22.5 t58.5 33.5t44.5 40.5h77q-24 -40 -59.5 -72t-78 -54t-91 -33.5t-99.5 -11.5q-78 0 -146.5 27.5t-119.5 76t-80.5 115.5t-29.5 145q0 75 30 140.5t81.5 114.5t120.5 77t146 28q70 0 133 -22t110.5 -62t75 -94.5t27.5 -120.5q0 -63 -23.5 -114.5t-58.5 -88t-74.5 -57 t-71.5 -20.5q-34 0 -54 15.5t-24 47.5h-2q-11 -12 -22.5 -23t-26 -20t-32.5 -14.5t-41 -5.5q-32 0 -58.5 12t-45.5 33t-29 48.5t-10 58.5q0 49 17 98t47.5 88t73.5 63.5t96 24.5q35 0 67.5 -18.5t47.5 -59.5h2l20 61h63zM513 410q0 35 -19 59t-55 24q-33 0 -61 -18.5 t-48.5 -47.5t-32.5 -63.5t-12 -65.5q0 -42 22.5 -64.5t60.5 -22.5q28 0 54.5 20t46.5 49.5t32 64.5t12 65z" horiz-adv-x="800"/>
<glyph unicode="A" glyph-name="A" d="M161 712h85l159 -712h-102l-30 153h-139l-30 -153h-102zM204 507h-2l-50 -258h102z" horiz-adv-x="407"/>
<glyph unicode="B" glyph-name="B" d="M150 420h46q51 0 68.5 25.5t17.5 74.5q0 48 -19.5 72t-70.5 24h-42v-196zM150 102h44q31 0 48.5 9t26.5 25t11 38t2 48q0 27 -3 47t-12.5 33.5t-26.5 20.5t-45 7h-45v-228zM48 712h149q49 0 83.5 -15t56.5 -40t31.5 -57.5t9.5 -67.5v-26q0 -29 -4.5 -49t-13.5 -35 t-22 -26.5t-30 -21.5q36 -17 53 -50.5t17 -89.5v-40q0 -94 -45.5 -144t-145.5 -50h-139v712z" horiz-adv-x="426"/>
<glyph unicode="C" glyph-name="C" d="M372 159q0 -33 -12.5 -63t-34.5 -52.5t-51.5 -36t-63.5 -13.5q-29 0 -59 8t-54 27.5t-39.5 51.5t-15.5 81v392q0 35 12 65t34 52t52.5 34.5t67.5 12.5q35 0 65 -12.5t52 -35t34.5 -54t12.5 -68.5v-40h-102v34q0 30 -17 52t-46 22q-38 0 -50.5 -23.5t-12.5 -59.5v-364 q0 -31 13.5 -52t48.5 -21q10 0 21.5 3.5t21 11.5t15.5 22t6 35v35h102v-44z" horiz-adv-x="407"/>
<glyph unicode="D" glyph-name="D" d="M150 96h47q43 0 61 21.5t18 67.5v343q0 42 -17 65t-62 23h-47v-520zM48 712h151q87 0 133 -48.5t46 -135.5v-333q0 -100 -48.5 -147.5t-139.5 -47.5h-142v712z" horiz-adv-x="426"/>
<glyph unicode="E" glyph-name="E" d="M48 712h304v-96h-202v-209h176v-96h-176v-209h202v-102h-304v712z"/>
<glyph unicode="F" glyph-name="F" d="M48 712h304v-96h-202v-216h176v-96h-176v-304h-102v712z"/>
<glyph unicode="G" glyph-name="G" d="M42 544q0 43 15 76t39.5 54.5t55 32.5t61.5 11t61.5 -11t55 -32.5t39.5 -54.5t15 -76v-36h-102v36q0 37 -20.5 54.5t-48.5 17.5t-48.5 -17.5t-20.5 -54.5v-376q0 -37 20.5 -54.5t48.5 -17.5t48.5 17.5t20.5 54.5v134h-81v90h183v-224q0 -44 -15 -76.5t-39.5 -54 t-55 -32.5t-61.5 -11t-61.5 11t-55 32.5t-39.5 54t-15 76.5v376z" horiz-adv-x="426"/>
<glyph unicode="H" glyph-name="H" d="M48 712h102v-305h126v305h102v-712h-102v317h-126v-317h-102v712z" horiz-adv-x="426"/>
<glyph unicode="I" glyph-name="I" d="M51 712h102v-712h-102v712z" horiz-adv-x="204"/>
<glyph unicode="J" glyph-name="J" d="M285 168q0 -35 -12 -66.5t-34.5 -55.5t-54.5 -38t-73 -14q-49 0 -81.5 21.5t-51.5 42.5l80 64q11 -11 25.5 -18.5t30.5 -7.5q9 0 21 3.5t22.5 13t18 26t7.5 43.5v530h102v-544z" horiz-adv-x="333"/>
<glyph unicode="K" glyph-name="K" d="M48 712h102v-325h2l149 325h102l-139 -285l165 -427h-108l-116 316l-55 -103v-213h-102v712z" horiz-adv-x="426"/>
<glyph unicode="L" glyph-name="L" d="M48 712h102v-610h202v-102h-304v712z"/>
<glyph unicode="M" glyph-name="M" d="M48 712h98l131 -377h2l130 377h99v-712h-102v433h-2l-101 -306h-51l-100 306h-2v-433h-102v712z" horiz-adv-x="556"/>
<glyph unicode="N" glyph-name="N" d="M44 712h98l154 -429h2v429h102v-712h-96l-156 428h-2v-428h-102v712z" horiz-adv-x="444"/>
<glyph unicode="O" glyph-name="O" d="M144 168q0 -37 20.5 -54.5t48.5 -17.5t48.5 17.5t20.5 54.5v376q0 37 -20.5 54.5t-48.5 17.5t-48.5 -17.5t-20.5 -54.5v-376zM42 544q0 43 15 76t39.5 54.5t55 32.5t61.5 11t61.5 -11t55 -32.5t39.5 -54.5t15 -76v-376q0 -44 -15 -76.5t-39.5 -54t-55 -32.5t-61.5 -11 t-61.5 11t-55 32.5t-39.5 54t-15 76.5v376z" horiz-adv-x="426"/>
<glyph unicode="P" glyph-name="P" d="M150 374h49q31 0 48 9t25 24.5t9.5 37.5t1.5 49q0 25 -1.5 47.5t-9 39t-23.5 26t-46 9.5h-53v-242zM48 712h153q42 0 74 -11t58 -39t36 -65.5t10 -101.5q0 -47 -5.5 -80.5t-23.5 -62.5q-21 -35 -56 -54.5t-92 -19.5h-52v-278h-102v712z" horiz-adv-x="407"/>
<glyph unicode="Q" glyph-name="Q" d="M42 544q0 43 15 76t39.5 54.5t55 32.5t61.5 11t61.5 -11t55 -32.5t39.5 -54.5t15 -76v-376q0 -42 -15 -73l63 -51l-52 -62l-60 49q-23 -19 -50.5 -28t-56.5 -9q-31 0 -61.5 11t-55 32.5t-39.5 54t-15 76.5v376zM144 168q0 -37 20.5 -54.5t48.5 -17.5q13 0 22 4l-46 37 l52 62l41 -33v2v376q0 37 -20.5 54.5t-48.5 17.5t-48.5 -17.5t-20.5 -54.5v-376z" horiz-adv-x="426"/>
<glyph unicode="R" glyph-name="R" d="M48 712h164q180 0 180 -209q0 -62 -19.5 -106.5t-68.5 -71.5l110 -325h-108l-95 304h-61v-304h-102v712zM150 394h58q27 0 43 7.5t24.5 21.5t11.5 34.5t3 47.5t-3 47.5t-12.5 35t-26.5 21.5t-45 7h-53v-222z" horiz-adv-x="426"/>
<glyph unicode="S" glyph-name="S" d="M378 507h-102v23q0 35 -16.5 60.5t-55.5 25.5q-21 0 -34.5 -8t-21 -20.5t-10.5 -29t-3 -34.5q0 -21 1.5 -35.5t7.5 -25t17.5 -18.5t31.5 -16l78 -31q34 -13 55 -30.5t32.5 -41t15.5 -54t4 -69.5q0 -45 -9 -83.5t-29.5 -66t-54.5 -43.5t-83 -16q-37 0 -69 13t-55 35.5 t-36.5 53.5t-13.5 67v38h102v-32q0 -28 16.5 -50.5t55.5 -22.5q26 0 40.5 7.5t22 21t9.5 33.5t2 44q0 28 -2 46t-8.5 29t-18 18t-30.5 15l-73 30q-66 27 -88.5 71.5t-22.5 111.5q0 40 11 76t32.5 62t54.5 41.5t77 15.5q38 0 69.5 -14t54 -37t34.5 -51.5t12 -58.5v-50z" horiz-adv-x="406"/>
<glyph unicode="T" glyph-name="T" d="M115 616h-118v96h338v-96h-118v-616h-102v616z" horiz-adv-x="332"/>
<glyph unicode="U" glyph-name="U" d="M378 160q0 -35 -13 -65t-35.5 -52.5t-52.5 -35.5t-64 -13t-64 13t-52.5 35.5t-35.5 52.5t-13 65v552h102v-542q0 -38 18 -56t45 -18t45 18t18 56v542h102v-552z" horiz-adv-x="426"/>
<glyph unicode="V" glyph-name="V" d="M248 0h-90l-145 712h108l81 -497h2l82 497h108z" horiz-adv-x="407"/>
<glyph unicode="W" glyph-name="W" d="M471 0h-96l-78 462h-2l-77 -462h-96l-106 712h108l51 -452h2l80 452h78l83 -463h2l49 463h108z" horiz-adv-x="593"/>
<glyph unicode="X" glyph-name="X" d="M142 373l-133 339h108l77 -211l78 211h108l-136 -339l147 -373h-108l-89 240l-88 -240h-108z" horiz-adv-x="389"/>
<glyph unicode="Y" glyph-name="Y" d="M143 301l-140 411h108l82 -283h2l82 283h108l-140 -411v-301h-102v301z" horiz-adv-x="388"/>
<glyph unicode="Z" glyph-name="Z" d="M15 90l192 526h-182v96h293v-81l-196 -535h196v-96h-303v90z" horiz-adv-x="333"/>
<glyph unicode="[" glyph-name="bracketleft" d="M214 652h-66v-692h66v-60h-156v812h156v-60z" horiz-adv-x="222"/>
<glyph unicode="\" glyph-name="backslash" d="M217 -6h-80l-132 724h80z" horiz-adv-x="222"/>
<glyph unicode="]" glyph-name="bracketright" d="M8 -40h66v692h-66v60h156v-812h-156v60z" horiz-adv-x="222"/>
<glyph unicode="^" glyph-name="asciicircum" d="M267 712h66l217 -429h-80l-170 339l-170 -339h-80z" horiz-adv-x="600"/>
<glyph unicode="_" glyph-name="underscore" d="M0 -75h500v-50h-500v50z" horiz-adv-x="500"/>
<glyph unicode="`" glyph-name="grave" d="M158 574h-66l-132 141h108z" horiz-adv-x="186"/>
<glyph unicode="a" glyph-name="a" d="M235 218q-17 3 -28 3q-33 0 -56.5 -15.5t-23.5 -56.5q0 -29 14 -47t39 -18q26 0 40.5 17t14.5 48v69zM235 52h-2q-20 -28 -40.5 -43t-57.5 -15q-18 0 -37 5.5t-35.5 20t-27 41t-10.5 68.5q0 43 7 75.5t25.5 54t49.5 32t79 10.5q11 0 22 -1t27 -2v53q0 26 -11 43t-40 17 q-20 0 -36.5 -13t-21.5 -38h-99q5 69 46 110q20 20 48 31.5t63 11.5q32 0 60 -10t48.5 -30t32.5 -50t12 -70v-353h-102v52z"/>
<glyph unicode="b" glyph-name="b" d="M245 351q0 24 -10.5 42t-39.5 18q-22 0 -36.5 -15.5t-14.5 -39.5v-197q0 -28 14 -45.5t37 -17.5q26 0 38 19t12 50v186zM42 712h102v-251h2q17 25 40.5 38.5t53.5 13.5q37 0 57.5 -13t33.5 -33q10 -16 13 -42t3 -81v-193q0 -42 -4 -67t-13 -42q-26 -48 -89 -48 q-38 0 -58 15t-39 37v-46h-102v712z" horiz-adv-x="389"/>
<glyph unicode="c" glyph-name="c" d="M150 146q0 -24 13.5 -37t36.5 -13q29 0 38.5 17t11.5 34h102q0 -32 -10.5 -60t-30.5 -48q-20 -21 -48 -33t-63 -12q-47 0 -81 20t-52 53q-11 20 -15 46t-4 57v167q0 31 4 57t15 46q18 33 52 53t81 20q35 0 63.5 -12t48 -33.5t30 -51.5t10.5 -65h-102q0 31 -13.5 45.5 t-36.5 14.5t-36.5 -14.5t-13.5 -43.5v-207z"/>
<glyph unicode="d" glyph-name="d" d="M245 46q-10 -11 -19 -20.5t-20 -16.5t-25 -11t-33 -4q-63 0 -89 48q-9 17 -13 42t-4 67v193q0 55 3 81t13 42q13 20 33.5 33t57.5 13q30 0 53.5 -13.5t40.5 -38.5h2v251h102v-712h-102v46zM144 165q0 -31 12 -50t38 -19q23 0 37 17.5t14 45.5v197q0 24 -14.5 39.5 t-36.5 15.5q-29 0 -39.5 -18t-10.5 -42v-186z" horiz-adv-x="389"/>
<glyph unicode="e" glyph-name="e" d="M135 295h100v58q0 29 -13.5 43.5t-36.5 14.5t-36.5 -14.5t-13.5 -43.5v-58zM135 215v-69q0 -24 13.5 -37t36.5 -13q29 0 38.5 17t11.5 34h102q0 -32 -10.5 -60t-30.5 -48q-20 -21 -48 -33t-63 -12q-47 0 -81 20t-52 53q-11 20 -15 46t-4 57v167q0 31 4 57t15 46 q18 33 52 53t81 20q35 0 63.5 -12t48 -33.5t30 -50.5t10.5 -62v-140h-202z"/>
<glyph unicode="f" glyph-name="f" d="M55 427h-50v80h50v69q0 37 11 62.5t29.5 42t42 24t48.5 7.5h47v-96h-46q-30 0 -30 -35v-74h76v-80h-76v-427h-102v427z" horiz-adv-x="222"/>
<glyph unicode="g" glyph-name="g" d="M144 156q0 -24 10.5 -42t39.5 -18q22 0 36.5 15.5t14.5 39.5v197q0 28 -14 45.5t-37 17.5q-26 0 -38 -19t-12 -50v-186zM144 -59q1 -18 14.5 -34t39.5 -16q25 0 36 15.5t11 39.5v100h-2q-17 -25 -40.5 -38.5t-54.5 -13.5q-63 0 -89 48q-9 17 -13 42t-4 67v193q0 55 3 81 t13 42q13 20 33.5 33t57.5 13q19 0 32.5 -4t24.5 -11t20 -16.5t19 -20.5v46h102v-569q0 -26 -8.5 -52.5t-27.5 -48t-48 -35t-69 -13.5q-23 0 -48 7.5t-46.5 25t-37 46.5t-20.5 73h102z" horiz-adv-x="389"/>
<glyph unicode="h" glyph-name="h" d="M42 712h102v-254h2q16 24 38.5 39.5t57.5 15.5q19 0 38 -6.5t34 -21.5t24 -38.5t9 -57.5v-389h-102v351q0 28 -13 44t-37 16q-29 0 -40 -18t-11 -52v-341h-102v712z" horiz-adv-x="389"/>
<glyph unicode="i" glyph-name="i" d="M42 712h102v-102h-102v102zM42 507h102v-507h-102v507z" horiz-adv-x="186"/>
<glyph unicode="j" glyph-name="j" d="M42 712h102v-102h-102v102zM42 507h102v-561q0 -75 -47 -113t-119 -38v96q18 0 30.5 4t20 14.5t10.5 28.5t3 46v523z" horiz-adv-x="186"/>
<glyph unicode="k" glyph-name="k" d="M42 712h102v-426h2l123 221h102l-121 -206l146 -301h-111l-92 219l-49 -77v-142h-102v712z" horiz-adv-x="389"/>
<glyph unicode="l" glyph-name="l" d="M36 712h102v-569q0 -29 10.5 -39.5t39.5 -13.5v-96q-35 0 -63.5 5.5t-48 21t-30 43.5t-10.5 72v576z" horiz-adv-x="186"/>
<glyph unicode="m" glyph-name="m" d="M42 507h102v-49h2q16 24 38.5 39.5t57.5 15.5q33 0 55 -16t36 -35q19 21 42 36t64 15q19 0 39 -6.5t36 -21.5t26 -38.5t10 -57.5v-389h-102v351q0 28 -13 44t-37 16q-29 0 -40 -18t-11 -52v-341h-102v351q0 28 -13 44t-37 16q-29 0 -40 -18t-11 -52v-341h-102v507z" horiz-adv-x="592"/>
<glyph unicode="n" glyph-name="n" d="M42 507h102v-49h2q16 24 38.5 39.5t57.5 15.5q19 0 38 -6.5t34 -21.5t24 -38.5t9 -57.5v-389h-102v351q0 28 -13 44t-37 16q-29 0 -40 -18t-11 -52v-341h-102v507z" horiz-adv-x="389"/>
<glyph unicode="o" glyph-name="o" d="M135 154q0 -29 13.5 -43.5t36.5 -14.5t36.5 14.5t13.5 43.5v199q0 29 -13.5 43.5t-36.5 14.5t-36.5 -14.5t-13.5 -43.5v-199zM33 337q0 31 4 57t15 46q18 33 52 53t81 20t81 -20t52 -53q11 -20 15 -46t4 -57v-167q0 -31 -4 -57t-15 -46q-18 -33 -52 -53t-81 -20t-81 20 t-52 53q-11 20 -15 46t-4 57v167z"/>
<glyph unicode="p" glyph-name="p" d="M245 342q0 31 -12 50t-38 19q-23 0 -37 -17.5t-14 -45.5v-197q0 -24 14.5 -39.5t36.5 -15.5q29 0 39.5 18t10.5 42v186zM42 507h102v-46q19 22 39 37t58 15q63 0 89 -48q9 -17 13 -42t4 -67v-193q0 -55 -3 -81t-13 -42q-13 -20 -33.5 -33t-57.5 -13q-30 0 -53.5 13.5 t-40.5 38.5h-2v-251h-102v712z" horiz-adv-x="389"/>
<glyph unicode="q" glyph-name="q" d="M144 156q0 -24 10.5 -42t39.5 -18q22 0 36.5 15.5t14.5 39.5v197q0 28 -14 45.5t-37 17.5q-26 0 -38 -19t-12 -50v-186zM245 46h-2q-17 -25 -40.5 -38.5t-53.5 -13.5q-37 0 -57.5 13t-33.5 33q-10 16 -13 42t-3 81v193q0 42 4 67t13 42q26 48 89 48q19 0 33 -4t25 -11 t20 -16.5t19 -20.5v46h102v-712h-102v251z" horiz-adv-x="389"/>
<glyph unicode="r" glyph-name="r" d="M42 507h102v-54q31 28 61 44t74 16v-108q-15 6 -31 6t-34.5 -5.5t-34 -18.5t-25.5 -34t-10 -52v-301h-102v507z" horiz-adv-x="278"/>
<glyph unicode="s" glyph-name="s" d="M227 365q-1 26 -16.5 39t-35.5 13q-24 0 -37 -15.5t-13 -35.5q0 -14 7 -27.5t36 -24.5l60 -24q57 -22 78.5 -60t21.5 -83q0 -32 -11.5 -59.5t-31.5 -48.5t-48 -33t-61 -12q-30 0 -57 10t-47.5 29t-33.5 47.5t-14 66.5h96q3 -21 14.5 -39t40.5 -18q22 0 39.5 14.5 t17.5 40.5q0 21 -11 36t-40 26l-49 18q-48 18 -75.5 53.5t-27.5 86.5q0 32 12 59.5t32.5 47t47.5 30.5t58 11t57.5 -11.5t45.5 -31t30 -47t11 -58.5h-96z" horiz-adv-x="352"/>
<glyph unicode="t" glyph-name="t" d="M42 661h102v-154h63v-80h-63v-281q0 -18 3.5 -28t11 -15t19.5 -6t29 -1v-96h-42q-35 0 -58.5 11t-37.5 28t-20.5 38.5t-6.5 41.5v308h-51v80h51v154z" horiz-adv-x="204"/>
<glyph unicode="u" glyph-name="u" d="M347 0h-102v49h-2q-16 -24 -38.5 -39.5t-57.5 -15.5q-19 0 -38 6.5t-34 21.5t-24 38.5t-9 57.5v389h102v-351q0 -28 13 -44t37 -16q29 0 40 18t11 52v341h102v-507z" horiz-adv-x="389"/>
<glyph unicode="v" glyph-name="v" d="M221 0h-90l-132 507h108l68 -324h2l68 324h108z" horiz-adv-x="352"/>
<glyph unicode="w" glyph-name="w" d="M415 0h-90l-56 301h-2l-56 -301h-90l-120 507h108l62 -315h2l57 315h80l54 -315h2l61 315h108z" horiz-adv-x="536"/>
<glyph unicode="x" glyph-name="x" d="M114 259l-119 248h108l63 -144l63 144h108l-121 -248l127 -259h-108l-69 155l-69 -155h-108z" horiz-adv-x="332"/>
<glyph unicode="y" glyph-name="y" d="M107 507l70 -316h2l69 316h105l-146 -595q-8 -34 -22.5 -56.5t-33.5 -36t-40.5 -19t-44.5 -5.5h-28v96h23q15 0 26 4t19.5 17.5t15.5 40t16 70.5l-139 484h108z" horiz-adv-x="352"/>
<glyph unicode="z" glyph-name="z" d="M17 81l165 336h-152v90h268v-81l-165 -330h165v-96h-281v81z" horiz-adv-x="315"/>
<glyph unicode="{" glyph-name="braceleft" d="M3 337q28 0 46 31.5t18 80.5v152q0 53 29 82t69 29h54v-60h-18q-24 0 -34 -17.5t-10 -48.5v-151q0 -33 -7 -56.5t-17 -38.5t-22.5 -23t-22.5 -10v-2q10 -2 22.5 -9.5t22.5 -22.5t17 -39t7 -58v-149q0 -32 10 -49.5t34 -17.5h18v-60h-54q-40 0 -69 29t-29 82v151 q0 51 -18 83t-46 32v60z" horiz-adv-x="222"/>
<glyph unicode="|" glyph-name="bar" d="M71 750h80v-1000h-80v1000z" horiz-adv-x="222"/>
<glyph unicode="}" glyph-name="braceright" d="M219 277q-28 0 -46 -32t-18 -83v-151q0 -53 -29 -82t-69 -29h-54v60h18q24 0 34 17.5t10 49.5v149q0 34 7 58t17 39t22 22.5t23 9.5v2q-11 2 -23 10t-22 23t-17 38.5t-7 56.5v151q0 31 -10 48.5t-34 17.5h-18v60h54q40 0 69 -29t29 -82v-152q0 -49 18 -80.5t46 -31.5v-60 z" horiz-adv-x="222"/>
<glyph unicode="~" glyph-name="asciitilde" d="M531 265q-8 -16 -19.5 -31.5t-26.5 -28t-34.5 -20t-44.5 -7.5q-26 0 -54 9.5t-57 23.5q-28 12 -55 24t-47 12q-15 0 -27.5 -6.5t-23 -16.5t-19.5 -22.5t-18 -25.5l-36 64q8 16 19.5 31.5t26.5 28t34.5 20t44.5 7.5q26 0 54 -9.5t57 -23.5q28 -12 55 -24t47 -12 q15 0 27.5 6.5t23 16.5t19.5 23l18 26z" horiz-adv-x="600"/>
<glyph unicode=" " glyph-name="uni00A0" horiz-adv-x="186"/>
<glyph unicode="¡" glyph-name="exclamdown" d="M69 507h102v-102h-102v102zM95 331h50l39 -536h-128z" horiz-adv-x="240"/>
<glyph unicode="¢" glyph-name="cent" d="M164 -6q-38 3 -66.5 22t-44.5 48q-11 20 -15 46t-4 57v172q0 31 4 57t15 46q16 29 44.5 48t66.5 23v75h41v-75q62 -5 97.5 -49.5t35.5 -112.5h-102q0 26 -8 40.5t-23 19.5v-315q17 6 23 20.5t8 30.5h102q0 -33 -10.5 -61.5t-30.5 -48.5q-17 -18 -40 -29.5t-52 -13.5v-84 h-41v84zM164 411q-12 -4 -20 -19q-8 -14 -8 -35v-215q0 -36 28 -46v315z" horiz-adv-x="372"/>
<glyph unicode="£" glyph-name="sterling" d="M13 369h55q-19 35 -28.5 68t-9.5 84q0 39 9 75t28.5 63t50.5 43t74 16q25 0 51 -9.5t47.5 -29.5t35.5 -50.5t14 -73.5v-45h-96v40q0 27 -11.5 49.5t-43.5 22.5q-35 0 -49 -30t-14 -72q0 -39 10 -79t22 -72h116v-71h-93q7 -19 12.5 -37.5t5.5 -50.5q0 -30 -9 -57t-23 -52 q17 -2 39 -6.5t43 -4.5q17 0 32.5 5t33.5 27l68 -69q-23 -32 -49.5 -45.5t-61.5 -13.5q-14 0 -36 3t-46 6.5t-47.5 6.5t-40.5 3q-22 0 -45.5 -5.5t-33.5 -10.5v86q8 5 27.5 11.5t36.5 8.5q13 19 20 41.5t7 45.5q0 22 -6 51.5t-17 56.5h-78v71z" horiz-adv-x="372"/>
<glyph unicode="¤" glyph-name="currency" d="M77 356q0 -23 8.5 -42.5t23.5 -34.5t34.5 -23.5t42.5 -8.5q22 0 42 8.5t35 23.5t23.5 34.5t8.5 42.5q0 22 -8.5 42t-23.5 35t-35 23.5t-42 8.5q-23 0 -42.5 -8.5t-34.5 -23.5t-23.5 -35t-8.5 -42zM46 256q-16 17 -25.5 43.5t-9.5 56.5t9 56.5t25 43.5l-41 42l41 41 l41 -42q17 15 43.5 24.5t56.5 9.5t56.5 -9t44.5 -25l41 42l40 -41l-41 -41q16 -18 25 -44.5t9 -56.5q0 -31 -9.5 -57t-24.5 -43l41 -41l-41 -41l-41 41q-17 -16 -43.5 -25t-56.5 -9t-56.5 9.5t-43.5 25.5l-41 -42l-41 40z" horiz-adv-x="372"/>
<glyph unicode="¥" glyph-name="yen" d="M138 172h-114v66h114v49h-114v66h98l-118 359h102l79 -283h2l79 283h102l-118 -359h98v-66h-114v-49h114v-66h-114v-172h-96v172z" horiz-adv-x="372"/>
<glyph unicode="¦" glyph-name="brokenbar" d="M71 675h80v-350h-80v350zM71 175h80v-350h-80v350z" horiz-adv-x="222"/>
<glyph unicode="§" glyph-name="section" d="M135 213q0 -22 14.5 -37.5t35.5 -15.5q20 0 35 15.5t15 37.5v99q0 22 -15 37.5t-35 15.5q-21 0 -35.5 -15.5t-14.5 -37.5v-99zM325 535h-85v42q0 23 -12.5 42t-37.5 19q-32 0 -42 -21.5t-10 -51.5q0 -18 1 -29.5t6 -20t14 -16.5t26 -18l97 -63q18 -12 29 -23.5 t16.5 -28.5t7.5 -42.5t2 -64.5q0 -36 -2 -60.5t-11 -42.5t-26.5 -31t-47.5 -27q25 -13 40 -25t22.5 -28t10 -37t2.5 -51q0 -42 -5 -67t-20 -47q-17 -25 -48.5 -39.5t-65.5 -14.5q-41 0 -68.5 14t-44 35.5t-23.5 46.5t-7 47v42h85v-41q0 -26 15.5 -45t39.5 -19q31 0 44 19 t13 59q0 19 -1.5 31t-5 20.5t-9.5 14.5t-16 12l-118 72q-20 12 -31.5 25.5t-17 32.5t-7 44t-1.5 60q0 43 4 72t14.5 48t28 30.5t45.5 20.5q-25 12 -39 25t-21.5 28.5t-9.5 35t-2 45.5q0 39 11 68t29.5 48t43.5 28.5t53 9.5q25 0 49 -8.5t43 -25.5t31 -43t12 -60v-46z"/>
<glyph unicode="¨" glyph-name="dieresis" d="M129 688h90v-102h-90v102zM-33 688h90v-102h-90v102z" horiz-adv-x="186"/>
<glyph unicode="©" glyph-name="copyright" d="M38 356q0 75 28.5 141t77.5 115t115 77.5t141 28.5t141 -28.5t115 -77.5t77.5 -115t28.5 -141t-28.5 -141t-77.5 -115t-115 -77.5t-141 -28.5t-141 28.5t-115 77.5t-77.5 115t-28.5 141zM690 356q0 61 -23 115t-62 94t-92 63.5t-113 23.5t-113 -23.5t-92 -63.5t-62 -94 t-23 -115t23 -115t62 -94t92 -63.5t113 -23.5t113 23.5t92 63.5t62 94t23 115zM590 287q-7 -35 -23 -64t-39.5 -49.5t-52.5 -31.5t-62 -11q-49 0 -88.5 17.5t-67.5 48t-43 71.5t-15 88q0 49 14.5 90.5t41.5 71.5t66 47t89 17q34 0 64.5 -10t54.5 -29t40 -47.5t21 -64.5h-66 q-4 18 -14 33.5t-25 27t-34 18t-40 6.5q-33 0 -59 -12.5t-44 -34t-27.5 -50t-9.5 -61.5q0 -31 10 -60t28.5 -51.5t45 -36t58.5 -13.5q43 0 73.5 26t37.5 64h66z" horiz-adv-x="800"/>
<glyph unicode="ª" glyph-name="ordfeminine" d="M154 541q-5 1 -9.5 1.5t-8.5 0.5q-22 0 -36 -9.5t-14 -34.5q0 -29 32 -29q17 0 26.5 10t9.5 24v37zM154 441h-2q-13 -17 -26 -26t-37 -9q-12 0 -25 3t-24 12t-18.5 25t-7.5 42q0 52 23 79t85 27q7 0 14 -0.5t18 -1.5v24q0 15 -7.5 25.5t-25.5 10.5q-13 0 -24 -6.5 t-13 -23.5h-66q3 44 30 70q29 26 73 26q21 0 40 -6t33.5 -18t23 -30t8.5 -42v-212h-72v31z" horiz-adv-x="240"/>
<glyph unicode="«" glyph-name="guillemotleft" d="M213 377l-101 -100l101 -100v-102l-203 202l203 202v-102zM398 377l-101 -100l101 -100v-102l-203 202l203 202v-102z" horiz-adv-x="426"/>
<glyph unicode="¬" glyph-name="logicalnot" d="M473 313h-426v80h506v-280h-80v200z" horiz-adv-x="600"/>
<glyph unicode="­" glyph-name="uni00AD" d="M44 328h301v-102h-301v102z" horiz-adv-x="389"/>
<glyph unicode="®" glyph-name="registered" d="M38 356q0 75 28.5 141t77.5 115t115 77.5t141 28.5t141 -28.5t115 -77.5t77.5 -115t28.5 -141t-28.5 -141t-77.5 -115t-115 -77.5t-141 -28.5t-141 28.5t-115 77.5t-77.5 115t-28.5 141zM690 356q0 61 -23 115t-62 94t-92 63.5t-113 23.5t-113 -23.5t-92 -63.5t-62 -94 t-23 -115t23 -115t62 -94t92 -63.5t113 -23.5t113 23.5t92 63.5t62 94t23 115zM263 567h160q145 0 145 -119q0 -30 -8.5 -51t-23.5 -35t-34.5 -21.5t-41.5 -10.5l121 -185h-80l-121 183h-51v-183h-66v422zM329 388h75q49 0 73.5 14.5t24.5 48.5q0 29 -21.5 42.5t-55.5 13.5 h-96v-119z" horiz-adv-x="800"/>
<glyph unicode="¯" glyph-name="macron" d="M-44 667h274v-60h-274v60z" horiz-adv-x="186"/>
<glyph unicode="°" glyph-name="degree" d="M18 606q0 23 9 43.5t24 35.5t35.5 24t43.5 9t43.5 -9t35.5 -24t24 -35.5t9 -43.5t-9 -43.5t-24 -35.5t-35.5 -24t-43.5 -9t-43.5 9t-35.5 24t-24 35.5t-9 43.5zM69 606q0 -26 17.5 -43.5t43.5 -17.5t43.5 17.5t17.5 43.5t-17.5 43.5t-43.5 17.5t-43.5 -17.5t-17.5 -43.5z " horiz-adv-x="260"/>
<glyph unicode="±" glyph-name="plusminus" d="M47 80h506v-80h-506v80zM260 265h-213v80h213v161h80v-161h213v-80h-213v-161h-80v161z" horiz-adv-x="600"/>
<glyph unicode="²" glyph-name="two.superior" d="M11 620q0 21 8.5 39t23.5 31t35 20.5t43 7.5q22 0 42 -7t35 -19t24 -28.5t9 -36.5v-33q0 -26 -6 -42t-17 -33l-95 -160h118v-72h-220v54l128 212q5 9 8.5 18.5t3.5 20.5v23q0 15 -10 23t-21 8t-20 -8t-9 -23v-31h-80v36z" horiz-adv-x="242"/>
<glyph unicode="³" glyph-name="three.superior" d="M100 540q29 0 39.5 6.5t11.5 27.5v42q0 13 -8 21.5t-22 8.5q-16 0 -23 -10.5t-7 -19.5v-26h-80v32q0 42 31 69t81 27q28 0 48 -8.5t33.5 -23t20 -32.5t6.5 -36v-41q0 -22 -7 -38.5t-34 -30.5q24 -14 32.5 -31t8.5 -42v-51q0 -18 -6 -36.5t-19.5 -32.5t-34.5 -23t-50 -9 q-20 0 -40 5t-35.5 16t-25 29t-9.5 44v34h80v-23q0 -15 8 -24t22 -9q13 0 21.5 9.5t8.5 20.5v52q0 23 -10 30t-41 7v66z" horiz-adv-x="242"/>
<glyph unicode="´" glyph-name="acute" d="M118 715h108l-132 -141h-66z" horiz-adv-x="186"/>
<glyph unicode="µ" glyph-name="mu" d="M347 0h-102v49h-2q-7 -14 -15.5 -24.5t-16.5 -17.5q-17 -13 -34 -13q-21 0 -31 10h-2v-209h-102v712h102v-351q0 -28 13 -44t37 -16q29 0 40 18t11 52v341h102v-507z" horiz-adv-x="389"/>
<glyph unicode="¶" glyph-name="paragraph" d="M182 334q-33 0 -64 14.5t-55.5 39.5t-39.5 59t-15 73q0 49 16 85t44.5 60t68.5 35.5t89 11.5h172v-917h-72v866h-72v-866h-72v539z" horiz-adv-x="444"/>
<glyph unicode="·" glyph-name="periodcentered" d="M29 298q0 26 19 45t45 19t45 -19t19 -45t-19 -45t-45 -19t-45 19t-19 45z" horiz-adv-x="186"/>
<glyph unicode="¸" glyph-name="cedilla" d="M85 0h46l-46 -60q8 1 15.5 1.5t15.5 0.5q25 0 41 -7t26 -18.5t14 -24.5t4 -25q0 -24 -11.5 -41.5t-29.5 -28.5t-39.5 -16t-42.5 -5q-29 0 -54 7t-39 12l17 42q16 -6 32 -10.5t33 -4.5q8 0 17.5 1.5t17.5 6t13.5 12.5t5.5 21q0 17 -14 27.5t-31 10.5q-21 0 -39 -7l-17 20z " horiz-adv-x="186"/>
<glyph unicode="¹" glyph-name="one.superior" d="M93 640l-66 -43v72l66 43h80v-425h-80v353z" horiz-adv-x="242"/>
<glyph unicode="º" glyph-name="ordmasculine" d="M90 506q0 -34 30 -34t30 34v111q0 35 -30 35t-30 -35v-111zM18 619q0 43 27.5 71t74.5 28t74.5 -28t27.5 -71v-114q0 -43 -27.5 -71t-74.5 -28t-74.5 28t-27.5 71v114z" horiz-adv-x="240"/>
<glyph unicode="»" glyph-name="guillemotright" d="M28 177l101 100l-101 100v102l203 -202l-203 -202v102zM213 177l101 100l-101 100v102l203 -202l-203 -202v102z" horiz-adv-x="426"/>
<glyph unicode="¼" glyph-name="onequarter" d="M434 62h-143v62l98 303h80l-94 -299h59v115h80v-115h30v-66h-30v-62h-80v62zM77 640l-66 -43v72l66 43h80v-425h-80v353zM455 729h60l-437 -746h-60z" horiz-adv-x="555"/>
<glyph unicode="½" glyph-name="onehalf" d="M322 54l130 212q5 9 8.5 18.5t3.5 20.5v23q0 15 -10 23t-21 8q-13 0 -22 -8t-9 -23v-31h-80v36q0 42 32 70t80 28q22 0 42 -7t35 -19t24 -28.5t9 -36.5v-33q0 -26 -6 -42t-17 -33l-95 -160h118v-72h-222v54zM77 640l-66 -43v72l66 43h80v-425h-80v353zM455 729h60 l-437 -746h-60z" horiz-adv-x="555"/>
<glyph unicode="¾" glyph-name="threequarters" d="M434 62h-143v62l98 303h80l-94 -299h59v115h80v-115h30v-66h-30v-62h-80v62zM100 540q29 0 39.5 6.5t11.5 27.5v42q0 13 -8 21.5t-22 8.5q-16 0 -23 -10.5t-7 -19.5v-26h-80v32q0 42 31 69t81 27q28 0 48 -8.5t33.5 -23t20 -32.5t6.5 -36v-41q0 -22 -7 -38.5t-34 -30.5 q24 -14 32.5 -31t8.5 -42v-51q0 -18 -6 -36.5t-19.5 -32.5t-34.5 -23t-50 -9q-20 0 -40 5t-35.5 16t-25 29t-9.5 44v34h80v-23q0 -15 8 -24t22 -9q13 0 21.5 9.5t8.5 20.5v52q0 23 -10 30t-41 7v66zM474 729h60l-437 -746h-60z" horiz-adv-x="555"/>
<glyph unicode="¿" glyph-name="questiondown" d="M236 405h-102v102h102v-102zM338 -59q0 -32 -12 -59.5t-33 -48t-49 -32.5t-60 -12q-37 0 -67.5 15t-50.5 42q-10 13 -16.5 25.5t-10.5 26t-5.5 30.5t-1.5 40q0 25 0.5 43t2.5 31t5 22.5t8 17.5l69 118q7 12 12 24.5t5 26.5v80h102v-93q0 -22 -7 -42t-18 -39l-64 -104 q-8 -13 -10.5 -28t-2.5 -30v-53q0 -21 14.5 -36t35.5 -15q18 0 35 13t17 38v58h102v-59z"/>
<glyph unicode="À" glyph-name="Agrave" d="M269 744h-66l-132 141h108zM161 712h85l159 -712h-102l-30 153h-139l-30 -153h-102zM204 507h-2l-50 -258h102z" horiz-adv-x="407"/>
<glyph unicode="Á" glyph-name="Aacute" d="M229 885h108l-132 -141h-66zM161 712h85l159 -712h-102l-30 153h-139l-30 -153h-102zM204 507h-2l-50 -258h102z" horiz-adv-x="407"/>
<glyph unicode="Â" glyph-name="Acircumflex" d="M157 885h94l98 -141h-78l-67 95l-67 -95h-78zM161 712h85l159 -712h-102l-30 153h-139l-30 -153h-102zM204 507h-2l-50 -258h102z" horiz-adv-x="407"/>
<glyph unicode="Ã" glyph-name="Atilde" d="M374 869q-5 -23 -12 -43t-19 -35t-29 -24t-41 -9q-12 0 -32.5 6t-42.5 13.5t-41 14t-28 6.5q-21 0 -32 -12.5t-12 -32.5h-51q4 23 11.5 43t19.5 35t29 24t41 9q12 0 32.5 -6.5t42.5 -14t41.5 -13.5t27.5 -6q21 0 32 12.5t12 32.5h51zM161 712h85l159 -712h-102l-30 153 h-139l-30 -153h-102zM204 507h-2l-50 -258h102z" horiz-adv-x="407"/>
<glyph unicode="Ä" glyph-name="Adieresis" d="M240 858h90v-102h-90v102zM78 858h90v-102h-90v102zM161 712h85l159 -712h-102l-30 153h-139l-30 -153h-102zM204 507h-2l-50 -258h102z" horiz-adv-x="407"/>
<glyph unicode="Å" glyph-name="Aring" d="M143 835q0 -26 17.5 -43.5t43.5 -17.5t43.5 17.5t17.5 43.5t-17.5 43.5t-43.5 17.5t-43.5 -17.5t-17.5 -43.5zM102 835q0 21 8 39.5t22 32.5t32.5 22t39.5 8t39.5 -8t32.5 -22t22 -32.5t8 -39.5t-8 -39.5t-22 -32.5t-32.5 -22t-39.5 -8t-39.5 8t-32.5 22t-22 32.5 t-8 39.5zM161 712h85l159 -712h-102l-30 153h-139l-30 -153h-102zM204 507h-2l-50 -258h102z" horiz-adv-x="407"/>
<glyph unicode="Æ" glyph-name="AE" d="M289 616h-24l-92 -367h116v367zM204 712h389v-96h-202v-209h176v-96h-176v-209h202v-102h-304v153h-140l-39 -153h-108z" horiz-adv-x="611"/>
<glyph unicode="Ç" glyph-name="Ccedilla" d="M192 -6q-27 2 -54 12t-48.5 29.5t-34.5 50.5t-13 76v392q0 35 12 65t34 52t52.5 34.5t67.5 12.5q35 0 65 -12.5t52 -35t34.5 -54t12.5 -68.5v-40h-102v34q0 30 -17 52t-46 22q-38 0 -50.5 -23.5t-12.5 -59.5v-364q0 -31 13.5 -52t48.5 -21q10 0 21.5 3.5t21 11.5t15.5 22 t6 35v35h102v-44q0 -29 -10 -56t-27.5 -49t-42 -37t-53.5 -21l-43 -56q8 1 15.5 1.5t15.5 0.5q25 0 41 -7t26 -18.5t14 -24.5t4 -25q0 -24 -11.5 -41.5t-29.5 -28.5t-39.5 -16t-42.5 -5q-29 0 -54 7t-39 12l17 42q16 -6 32 -10.5t33 -4.5q8 0 17.5 1.5t17.5 6t13.5 12.5 t5.5 21q0 17 -14 27.5t-31 10.5q-21 0 -39 -7l-17 20z" horiz-adv-x="407"/>
<glyph unicode="È" glyph-name="Egrave" d="M260 744h-66l-132 141h108zM48 712h304v-96h-202v-209h176v-96h-176v-209h202v-102h-304v712z"/>
<glyph unicode="É" glyph-name="Eacute" d="M220 885h108l-132 -141h-66zM48 712h304v-96h-202v-209h176v-96h-176v-209h202v-102h-304v712z"/>
<glyph unicode="Ê" glyph-name="Ecircumflex" d="M148 885h94l98 -141h-78l-67 95l-67 -95h-78zM48 712h304v-96h-202v-209h176v-96h-176v-209h202v-102h-304v712z"/>
<glyph unicode="Ë" glyph-name="Edieresis" d="M231 858h90v-102h-90v102zM69 858h90v-102h-90v102zM48 712h304v-96h-202v-209h176v-96h-176v-209h202v-102h-304v712z"/>
<glyph unicode="Ì" glyph-name="Igrave" d="M167 744h-66l-132 141h108zM51 712h102v-712h-102v712z" horiz-adv-x="204"/>
<glyph unicode="Í" glyph-name="Iacute" d="M127 885h108l-132 -141h-66zM51 712h102v-712h-102v712z" horiz-adv-x="204"/>
<glyph unicode="Î" glyph-name="Icircumflex" d="M55 885h94l98 -141h-78l-67 95l-67 -95h-78zM51 712h102v-712h-102v712z" horiz-adv-x="204"/>
<glyph unicode="Ï" glyph-name="Idieresis" d="M138 858h90v-102h-90v102zM-24 858h90v-102h-90v102zM51 712h102v-712h-102v712z" horiz-adv-x="204"/>
<glyph unicode="Ð" glyph-name="Eth" d="M48 350h-48v66h48v296h151q87 0 133 -48.5t46 -135.5v-333q0 -100 -48.5 -147.5t-139.5 -47.5h-142v350zM150 416h70v-66h-70v-254h47q43 0 61 21.5t18 67.5v343q0 42 -17 65t-62 23h-47v-200z" horiz-adv-x="426"/>
<glyph unicode="Ñ" glyph-name="Ntilde" d="M392 869q-5 -23 -12 -43t-19 -35t-29 -24t-41 -9q-12 0 -32.5 6t-42.5 13.5t-41 14t-28 6.5q-21 0 -32 -12.5t-12 -32.5h-51q4 23 11.5 43t19.5 35t29 24t41 9q12 0 32.5 -6.5t42.5 -14t41.5 -13.5t27.5 -6q21 0 32 12.5t12 32.5h51zM44 712h98l154 -429h2v429h102v-712 h-96l-156 428h-2v-428h-102v712z" horiz-adv-x="444"/>
<glyph unicode="Ò" glyph-name="Ograve" d="M278 744h-66l-132 141h108zM144 168q0 -37 20.5 -54.5t48.5 -17.5t48.5 17.5t20.5 54.5v376q0 37 -20.5 54.5t-48.5 17.5t-48.5 -17.5t-20.5 -54.5v-376zM42 544q0 43 15 76t39.5 54.5t55 32.5t61.5 11t61.5 -11t55 -32.5t39.5 -54.5t15 -76v-376q0 -44 -15 -76.5 t-39.5 -54t-55 -32.5t-61.5 -11t-61.5 11t-55 32.5t-39.5 54t-15 76.5v376z" horiz-adv-x="426"/>
<glyph unicode="Ó" glyph-name="Oacute" d="M238 885h108l-132 -141h-66zM144 168q0 -37 20.5 -54.5t48.5 -17.5t48.5 17.5t20.5 54.5v376q0 37 -20.5 54.5t-48.5 17.5t-48.5 -17.5t-20.5 -54.5v-376zM42 544q0 43 15 76t39.5 54.5t55 32.5t61.5 11t61.5 -11t55 -32.5t39.5 -54.5t15 -76v-376q0 -44 -15 -76.5 t-39.5 -54t-55 -32.5t-61.5 -11t-61.5 11t-55 32.5t-39.5 54t-15 76.5v376z" horiz-adv-x="426"/>
<glyph unicode="Ô" glyph-name="Ocircumflex" d="M166 885h94l98 -141h-78l-67 95l-67 -95h-78zM144 168q0 -37 20.5 -54.5t48.5 -17.5t48.5 17.5t20.5 54.5v376q0 37 -20.5 54.5t-48.5 17.5t-48.5 -17.5t-20.5 -54.5v-376zM42 544q0 43 15 76t39.5 54.5t55 32.5t61.5 11t61.5 -11t55 -32.5t39.5 -54.5t15 -76v-376 q0 -44 -15 -76.5t-39.5 -54t-55 -32.5t-61.5 -11t-61.5 11t-55 32.5t-39.5 54t-15 76.5v376z" horiz-adv-x="426"/>
<glyph unicode="Õ" glyph-name="Otilde" d="M383 869q-5 -23 -12 -43t-19 -35t-29 -24t-41 -9q-12 0 -32.5 6t-42.5 13.5t-41 14t-28 6.5q-21 0 -32 -12.5t-12 -32.5h-51q4 23 11.5 43t19.5 35t29 24t41 9q12 0 32.5 -6.5t42.5 -14t41.5 -13.5t27.5 -6q21 0 32 12.5t12 32.5h51zM144 168q0 -37 20.5 -54.5 t48.5 -17.5t48.5 17.5t20.5 54.5v376q0 37 -20.5 54.5t-48.5 17.5t-48.5 -17.5t-20.5 -54.5v-376zM42 544q0 43 15 76t39.5 54.5t55 32.5t61.5 11t61.5 -11t55 -32.5t39.5 -54.5t15 -76v-376q0 -44 -15 -76.5t-39.5 -54t-55 -32.5t-61.5 -11t-61.5 11t-55 32.5t-39.5 54 t-15 76.5v376z" horiz-adv-x="426"/>
<glyph unicode="Ö" glyph-name="Odieresis" d="M249 858h90v-102h-90v102zM87 858h90v-102h-90v102zM144 168q0 -37 20.5 -54.5t48.5 -17.5t48.5 17.5t20.5 54.5v376q0 37 -20.5 54.5t-48.5 17.5t-48.5 -17.5t-20.5 -54.5v-376zM42 544q0 43 15 76t39.5 54.5t55 32.5t61.5 11t61.5 -11t55 -32.5t39.5 -54.5t15 -76v-376 q0 -44 -15 -76.5t-39.5 -54t-55 -32.5t-61.5 -11t-61.5 11t-55 32.5t-39.5 54t-15 76.5v376z" horiz-adv-x="426"/>
<glyph unicode="×" glyph-name="multiply" d="M244 253l-177 177l57 56l176 -176l177 176l56 -56l-176 -177l176 -176l-56 -57l-177 177l-176 -177l-57 57z" horiz-adv-x="600"/>
<glyph unicode="Ø" glyph-name="Oslash" d="M144 163q2 -34 22 -50.5t47 -16.5q28 0 48.5 17.5t20.5 54.5v281h-2zM282 549q-2 35 -22.5 51t-46.5 16q-28 0 -48.5 -17.5t-20.5 -54.5v-282h2zM60 87q-18 34 -18 81v376q0 43 15 76t39.5 54.5t55 32.5t61.5 11q34 0 66.5 -13t58.5 -39l40 84l38 -22l-50 -103 q8 -16 13 -36.5t5 -44.5v-376q0 -44 -15 -76.5t-39.5 -54t-55 -32.5t-61.5 -11q-35 0 -68 13t-57 39l-40 -84l-38 22z" horiz-adv-x="426"/>
<glyph unicode="Ù" glyph-name="Ugrave" d="M278 744h-66l-132 141h108zM378 160q0 -35 -13 -65t-35.5 -52.5t-52.5 -35.5t-64 -13t-64 13t-52.5 35.5t-35.5 52.5t-13 65v552h102v-542q0 -38 18 -56t45 -18t45 18t18 56v542h102v-552z" horiz-adv-x="426"/>
<glyph unicode="Ú" glyph-name="Uacute" d="M238 885h108l-132 -141h-66zM378 160q0 -35 -13 -65t-35.5 -52.5t-52.5 -35.5t-64 -13t-64 13t-52.5 35.5t-35.5 52.5t-13 65v552h102v-542q0 -38 18 -56t45 -18t45 18t18 56v542h102v-552z" horiz-adv-x="426"/>
<glyph unicode="Û" glyph-name="Ucircumflex" d="M166 885h94l98 -141h-78l-67 95l-67 -95h-78zM378 160q0 -35 -13 -65t-35.5 -52.5t-52.5 -35.5t-64 -13t-64 13t-52.5 35.5t-35.5 52.5t-13 65v552h102v-542q0 -38 18 -56t45 -18t45 18t18 56v542h102v-552z" horiz-adv-x="426"/>
<glyph unicode="Ü" glyph-name="Udieresis" d="M249 858h90v-102h-90v102zM87 858h90v-102h-90v102zM378 160q0 -35 -13 -65t-35.5 -52.5t-52.5 -35.5t-64 -13t-64 13t-52.5 35.5t-35.5 52.5t-13 65v552h102v-542q0 -38 18 -56t45 -18t45 18t18 56v542h102v-552z" horiz-adv-x="426"/>
<glyph unicode="Ý" glyph-name="Yacute" d="M219 885h108l-132 -141h-66zM143 301l-140 411h108l82 -283h2l82 283h108l-140 -411v-301h-102v301z" horiz-adv-x="388"/>
<glyph unicode="Þ" glyph-name="Thorn" d="M150 250h49q31 0 48 9t25 24.5t9.5 37.5t1.5 49q0 25 -1.5 47.5t-9 39t-23.5 26t-46 9.5h-53v-242zM48 712h102v-124h51q42 0 74 -11t58 -39t36 -65.5t10 -101.5q0 -47 -5.5 -80.5t-23.5 -62.5q-21 -35 -56 -54.5t-92 -19.5h-52v-154h-102v712z" horiz-adv-x="407"/>
<glyph unicode="ß" glyph-name="germandbls" d="M42 552q0 33 9 63t27.5 53t47 36.5t67.5 13.5q43 0 72.5 -14t47.5 -38.5t26 -58t8 -71.5q0 -27 -2.5 -45t-9 -32t-18 -24.5t-29.5 -22.5q29 -16 44 -40t15 -62v-176q0 -47 -12.5 -74.5t-32.5 -42t-46.5 -19t-54.5 -4.5v96q22 0 33 9.5t11 41.5v190q0 20 -11.5 26.5 t-32.5 6.5v90q23 0 33.5 7.5t10.5 31.5v80q0 21 -9.5 35t-38.5 14t-41 -19t-12 -69v-534h-102v552z" horiz-adv-x="389"/>
<glyph unicode="à" glyph-name="agrave" d="M250 574h-66l-132 141h108zM235 218q-17 3 -28 3q-33 0 -56.5 -15.5t-23.5 -56.5q0 -29 14 -47t39 -18q26 0 40.5 17t14.5 48v69zM235 52h-2q-20 -28 -40.5 -43t-57.5 -15q-18 0 -37 5.5t-35.5 20t-27 41t-10.5 68.5q0 43 7 75.5t25.5 54t49.5 32t79 10.5q11 0 22 -1 t27 -2v53q0 26 -11 43t-40 17q-20 0 -36.5 -13t-21.5 -38h-99q5 69 46 110q20 20 48 31.5t63 11.5q32 0 60 -10t48.5 -30t32.5 -50t12 -70v-353h-102v52z"/>
<glyph unicode="á" glyph-name="aacute" d="M210 715h108l-132 -141h-66zM235 218q-17 3 -28 3q-33 0 -56.5 -15.5t-23.5 -56.5q0 -29 14 -47t39 -18q26 0 40.5 17t14.5 48v69zM235 52h-2q-20 -28 -40.5 -43t-57.5 -15q-18 0 -37 5.5t-35.5 20t-27 41t-10.5 68.5q0 43 7 75.5t25.5 54t49.5 32t79 10.5q11 0 22 -1 t27 -2v53q0 26 -11 43t-40 17q-20 0 -36.5 -13t-21.5 -38h-99q5 69 46 110q20 20 48 31.5t63 11.5q32 0 60 -10t48.5 -30t32.5 -50t12 -70v-353h-102v52z"/>
<glyph unicode="â" glyph-name="acircumflex" d="M138 715h94l98 -141h-78l-67 95l-67 -95h-78zM235 218q-17 3 -28 3q-33 0 -56.5 -15.5t-23.5 -56.5q0 -29 14 -47t39 -18q26 0 40.5 17t14.5 48v69zM235 52h-2q-20 -28 -40.5 -43t-57.5 -15q-18 0 -37 5.5t-35.5 20t-27 41t-10.5 68.5q0 43 7 75.5t25.5 54t49.5 32 t79 10.5q11 0 22 -1t27 -2v53q0 26 -11 43t-40 17q-20 0 -36.5 -13t-21.5 -38h-99q5 69 46 110q20 20 48 31.5t63 11.5q32 0 60 -10t48.5 -30t32.5 -50t12 -70v-353h-102v52z"/>
<glyph unicode="ã" glyph-name="atilde" d="M355 699q-5 -23 -12 -43t-19 -35t-29 -24t-41 -9q-12 0 -32.5 6t-42.5 13.5t-41 14t-28 6.5q-21 0 -32 -12.5t-12 -32.5h-51q4 23 11.5 43t19.5 35t29 24t41 9q12 0 32.5 -6.5t42.5 -14t41.5 -13.5t27.5 -6q21 0 32 12.5t12 32.5h51zM235 218q-17 3 -28 3 q-33 0 -56.5 -15.5t-23.5 -56.5q0 -29 14 -47t39 -18q26 0 40.5 17t14.5 48v69zM235 52h-2q-20 -28 -40.5 -43t-57.5 -15q-18 0 -37 5.5t-35.5 20t-27 41t-10.5 68.5q0 43 7 75.5t25.5 54t49.5 32t79 10.5q11 0 22 -1t27 -2v53q0 26 -11 43t-40 17q-20 0 -36.5 -13 t-21.5 -38h-99q5 69 46 110q20 20 48 31.5t63 11.5q32 0 60 -10t48.5 -30t32.5 -50t12 -70v-353h-102v52z"/>
<glyph unicode="ä" glyph-name="adieresis" d="M221 688h90v-102h-90v102zM59 688h90v-102h-90v102zM235 218q-17 3 -28 3q-33 0 -56.5 -15.5t-23.5 -56.5q0 -29 14 -47t39 -18q26 0 40.5 17t14.5 48v69zM235 52h-2q-20 -28 -40.5 -43t-57.5 -15q-18 0 -37 5.5t-35.5 20t-27 41t-10.5 68.5q0 43 7 75.5t25.5 54t49.5 32 t79 10.5q11 0 22 -1t27 -2v53q0 26 -11 43t-40 17q-20 0 -36.5 -13t-21.5 -38h-99q5 69 46 110q20 20 48 31.5t63 11.5q32 0 60 -10t48.5 -30t32.5 -50t12 -70v-353h-102v52z"/>
<glyph unicode="å" glyph-name="aring" d="M124 660q0 -26 17.5 -43.5t43.5 -17.5t43.5 17.5t17.5 43.5t-17.5 43.5t-43.5 17.5t-43.5 -17.5t-17.5 -43.5zM83 660q0 21 8 39.5t22 32.5t32.5 22t39.5 8t39.5 -8t32.5 -22t22 -32.5t8 -39.5t-8 -39.5t-22 -32.5t-32.5 -22t-39.5 -8t-39.5 8t-32.5 22t-22 32.5t-8 39.5 zM235 218q-17 3 -28 3q-33 0 -56.5 -15.5t-23.5 -56.5q0 -29 14 -47t39 -18q26 0 40.5 17t14.5 48v69zM235 52h-2q-20 -28 -40.5 -43t-57.5 -15q-18 0 -37 5.5t-35.5 20t-27 41t-10.5 68.5q0 43 7 75.5t25.5 54t49.5 32t79 10.5q11 0 22 -1t27 -2v53q0 26 -11 43t-40 17 q-20 0 -36.5 -13t-21.5 -38h-99q5 69 46 110q20 20 48 31.5t63 11.5q32 0 60 -10t48.5 -30t32.5 -50t12 -70v-353h-102v52z"/>
<glyph unicode="æ" glyph-name="ae" d="M235 218q-17 3 -28 3q-33 0 -56.5 -15.5t-23.5 -56.5q0 -29 14 -47t39 -18q26 0 40.5 17t14.5 48v69zM539 215h-202v-69q0 -24 13.5 -37t36.5 -13q29 0 38.5 17t11.5 34h102q0 -33 -11 -61t-31.5 -48t-48.5 -32t-61 -12h-4q-48 0 -81 21.5t-48 50.5q-18 -36 -49.5 -54 t-69.5 -18q-18 0 -37 5.5t-35.5 20t-27 41t-10.5 68.5q0 43 7 75.5t25.5 54t49.5 32t79 10.5q11 0 22 -1t27 -2v53q0 26 -11 43t-40 17q-20 0 -36.5 -13t-21.5 -38h-99q2 34 14 62t32 48t48 31.5t63 11.5q32 0 56.5 -9.5t44.5 -26.5q19 17 46 26.5t56 9.5q35 0 63.5 -12 t48 -33.5t30 -50.5t10.5 -62v-140zM337 295h100v58q0 29 -13.5 43.5t-36.5 14.5t-36.5 -14.5t-13.5 -43.5v-58z" horiz-adv-x="572"/>
<glyph unicode="ç" glyph-name="ccedilla" d="M175 -4q-38 5 -65.5 24t-42.5 47q-11 20 -15 46t-4 57v167q0 31 4 57t15 46q18 33 52 53t81 20q35 0 63.5 -12t48 -33.5t30 -51.5t10.5 -65h-102q0 31 -13.5 45.5t-36.5 14.5t-36.5 -14.5t-13.5 -43.5v-207q0 -24 13.5 -37t36.5 -13q29 0 38.5 17t11.5 34h102 q0 -32 -10.5 -60t-30.5 -48q-36 -37 -91 -43l-43 -56q8 1 15.5 1.5t15.5 0.5q25 0 41 -7t26 -18.5t14 -24.5t4 -25q0 -24 -11.5 -41.5t-29.5 -28.5t-39.5 -16t-42.5 -5q-29 0 -54 7t-39 12l17 42q16 -6 32 -10.5t33 -4.5q8 0 17.5 1.5t17.5 6t13.5 12.5t5.5 21 q0 17 -14 27.5t-31 10.5q-21 0 -39 -7l-17 20z"/>
<glyph unicode="è" glyph-name="egrave" d="M250 574h-66l-132 141h108zM135 295h100v58q0 29 -13.5 43.5t-36.5 14.5t-36.5 -14.5t-13.5 -43.5v-58zM135 215v-69q0 -24 13.5 -37t36.5 -13q29 0 38.5 17t11.5 34h102q0 -32 -10.5 -60t-30.5 -48q-20 -21 -48 -33t-63 -12q-47 0 -81 20t-52 53q-11 20 -15 46t-4 57 v167q0 31 4 57t15 46q18 33 52 53t81 20q35 0 63.5 -12t48 -33.5t30 -50.5t10.5 -62v-140h-202z"/>
<glyph unicode="é" glyph-name="eacute" d="M210 715h108l-132 -141h-66zM135 295h100v58q0 29 -13.5 43.5t-36.5 14.5t-36.5 -14.5t-13.5 -43.5v-58zM135 215v-69q0 -24 13.5 -37t36.5 -13q29 0 38.5 17t11.5 34h102q0 -32 -10.5 -60t-30.5 -48q-20 -21 -48 -33t-63 -12q-47 0 -81 20t-52 53q-11 20 -15 46t-4 57 v167q0 31 4 57t15 46q18 33 52 53t81 20q35 0 63.5 -12t48 -33.5t30 -50.5t10.5 -62v-140h-202z"/>
<glyph unicode="ê" glyph-name="ecircumflex" d="M138 715h94l98 -141h-78l-67 95l-67 -95h-78zM135 295h100v58q0 29 -13.5 43.5t-36.5 14.5t-36.5 -14.5t-13.5 -43.5v-58zM135 215v-69q0 -24 13.5 -37t36.5 -13q29 0 38.5 17t11.5 34h102q0 -32 -10.5 -60t-30.5 -48q-20 -21 -48 -33t-63 -12q-47 0 -81 20t-52 53 q-11 20 -15 46t-4 57v167q0 31 4 57t15 46q18 33 52 53t81 20q35 0 63.5 -12t48 -33.5t30 -50.5t10.5 -62v-140h-202z"/>
<glyph unicode="ë" glyph-name="edieresis" d="M221 688h90v-102h-90v102zM59 688h90v-102h-90v102zM135 295h100v58q0 29 -13.5 43.5t-36.5 14.5t-36.5 -14.5t-13.5 -43.5v-58zM135 215v-69q0 -24 13.5 -37t36.5 -13q29 0 38.5 17t11.5 34h102q0 -32 -10.5 -60t-30.5 -48q-20 -21 -48 -33t-63 -12q-47 0 -81 20t-52 53 q-11 20 -15 46t-4 57v167q0 31 4 57t15 46q18 33 52 53t81 20q35 0 63.5 -12t48 -33.5t30 -50.5t10.5 -62v-140h-202z"/>
<glyph unicode="ì" glyph-name="igrave" d="M158 574h-66l-132 141h108zM42 507h102v-507h-102v507z" horiz-adv-x="186"/>
<glyph unicode="í" glyph-name="iacute" d="M118 715h108l-132 -141h-66zM42 507h102v-507h-102v507z" horiz-adv-x="186"/>
<glyph unicode="î" glyph-name="icircumflex" d="M46 715h94l98 -141h-78l-67 95l-67 -95h-78zM42 507h102v-507h-102v507z" horiz-adv-x="186"/>
<glyph unicode="ï" glyph-name="idieresis" d="M129 688h90v-102h-90v102zM-33 688h90v-102h-90v102zM42 507h102v-507h-102v507z" horiz-adv-x="186"/>
<glyph unicode="ð" glyph-name="eth" d="M155 640q-29 24 -77 43l83 44q46 -16 80 -47l68 32l28 -40l-63 -29q19 -25 31 -53.5t19 -59.5t10 -62t3 -60v-238q0 -31 -4 -57t-15 -46q-18 -33 -52 -53t-81 -20t-81 20t-52 53q-11 20 -15 46t-4 57v167q0 31 4 57t15 46q18 33 52 53t81 20q14 0 27 -6.5t21 -16.5l2 2 q-8 35 -19 62.5t-28 48.5l-74 -35l-28 40zM135 154q0 -29 13.5 -43.5t36.5 -14.5t36.5 14.5t13.5 43.5v199q0 29 -13.5 43.5t-36.5 14.5t-36.5 -14.5t-13.5 -43.5v-199z"/>
<glyph unicode="ñ" glyph-name="ntilde" d="M365 699q-5 -23 -12 -43t-19 -35t-29 -24t-41 -9q-12 0 -32.5 6t-42.5 13.5t-41 14t-28 6.5q-21 0 -32 -12.5t-12 -32.5h-51q4 23 11.5 43t19.5 35t29 24t41 9q12 0 32.5 -6.5t42.5 -14t41.5 -13.5t27.5 -6q21 0 32 12.5t12 32.5h51zM42 507h102v-49h2q16 24 38.5 39.5 t57.5 15.5q19 0 38 -6.5t34 -21.5t24 -38.5t9 -57.5v-389h-102v351q0 28 -13 44t-37 16q-29 0 -40 -18t-11 -52v-341h-102v507z" horiz-adv-x="389"/>
<glyph unicode="ò" glyph-name="ograve" d="M250 574h-66l-132 141h108zM135 154q0 -29 13.5 -43.5t36.5 -14.5t36.5 14.5t13.5 43.5v199q0 29 -13.5 43.5t-36.5 14.5t-36.5 -14.5t-13.5 -43.5v-199zM33 337q0 31 4 57t15 46q18 33 52 53t81 20t81 -20t52 -53q11 -20 15 -46t4 -57v-167q0 -31 -4 -57t-15 -46 q-18 -33 -52 -53t-81 -20t-81 20t-52 53q-11 20 -15 46t-4 57v167z"/>
<glyph unicode="ó" glyph-name="oacute" d="M210 715h108l-132 -141h-66zM135 154q0 -29 13.5 -43.5t36.5 -14.5t36.5 14.5t13.5 43.5v199q0 29 -13.5 43.5t-36.5 14.5t-36.5 -14.5t-13.5 -43.5v-199zM33 337q0 31 4 57t15 46q18 33 52 53t81 20t81 -20t52 -53q11 -20 15 -46t4 -57v-167q0 -31 -4 -57t-15 -46 q-18 -33 -52 -53t-81 -20t-81 20t-52 53q-11 20 -15 46t-4 57v167z"/>
<glyph unicode="ô" glyph-name="ocircumflex" d="M138 715h94l98 -141h-78l-67 95l-67 -95h-78zM135 154q0 -29 13.5 -43.5t36.5 -14.5t36.5 14.5t13.5 43.5v199q0 29 -13.5 43.5t-36.5 14.5t-36.5 -14.5t-13.5 -43.5v-199zM33 337q0 31 4 57t15 46q18 33 52 53t81 20t81 -20t52 -53q11 -20 15 -46t4 -57v-167 q0 -31 -4 -57t-15 -46q-18 -33 -52 -53t-81 -20t-81 20t-52 53q-11 20 -15 46t-4 57v167z"/>
<glyph unicode="õ" glyph-name="otilde" d="M355 699q-5 -23 -12 -43t-19 -35t-29 -24t-41 -9q-12 0 -32.5 6t-42.5 13.5t-41 14t-28 6.5q-21 0 -32 -12.5t-12 -32.5h-51q4 23 11.5 43t19.5 35t29 24t41 9q12 0 32.5 -6.5t42.5 -14t41.5 -13.5t27.5 -6q21 0 32 12.5t12 32.5h51zM135 154q0 -29 13.5 -43.5 t36.5 -14.5t36.5 14.5t13.5 43.5v199q0 29 -13.5 43.5t-36.5 14.5t-36.5 -14.5t-13.5 -43.5v-199zM33 337q0 31 4 57t15 46q18 33 52 53t81 20t81 -20t52 -53q11 -20 15 -46t4 -57v-167q0 -31 -4 -57t-15 -46q-18 -33 -52 -53t-81 -20t-81 20t-52 53q-11 20 -15 46t-4 57 v167z"/>
<glyph unicode="ö" glyph-name="odieresis" d="M221 688h90v-102h-90v102zM59 688h90v-102h-90v102zM135 154q0 -29 13.5 -43.5t36.5 -14.5t36.5 14.5t13.5 43.5v199q0 29 -13.5 43.5t-36.5 14.5t-36.5 -14.5t-13.5 -43.5v-199zM33 337q0 31 4 57t15 46q18 33 52 53t81 20t81 -20t52 -53q11 -20 15 -46t4 -57v-167 q0 -31 -4 -57t-15 -46q-18 -33 -52 -53t-81 -20t-81 20t-52 53q-11 20 -15 46t-4 57v167z"/>
<glyph unicode="÷" glyph-name="divide" d="M236 460q0 26 19 45t45 19t45 -19t19 -45t-19 -45t-45 -19t-45 19t-19 45zM236 46q0 26 19 45t45 19t45 -19t19 -45t-19 -45t-45 -19t-45 19t-19 45zM47 293h506v-80h-506v80z" horiz-adv-x="600"/>
<glyph unicode="ø" glyph-name="oslash" d="M53 71q-20 40 -20 87v191q0 36 10.5 66t30 51.5t48 34t63.5 12.5q66 0 106 -42l41 69l34 -21l-49 -83q20 -40 20 -87v-191q0 -36 -10.5 -66t-30 -51.5t-48 -34t-63.5 -12.5q-66 0 -106 42l-41 -69l-34 21zM138 135q6 -39 47 -39q23 0 36.5 14.5t13.5 43.5v144h-2z M232 372q-6 39 -47 39q-23 0 -36.5 -14.5t-13.5 -43.5v-144h2z"/>
<glyph unicode="ù" glyph-name="ugrave" d="M260 574h-66l-132 141h108zM347 0h-102v49h-2q-16 -24 -38.5 -39.5t-57.5 -15.5q-19 0 -38 6.5t-34 21.5t-24 38.5t-9 57.5v389h102v-351q0 -28 13 -44t37 -16q29 0 40 18t11 52v341h102v-507z" horiz-adv-x="389"/>
<glyph unicode="ú" glyph-name="uacute" d="M220 715h108l-132 -141h-66zM347 0h-102v49h-2q-16 -24 -38.5 -39.5t-57.5 -15.5q-19 0 -38 6.5t-34 21.5t-24 38.5t-9 57.5v389h102v-351q0 -28 13 -44t37 -16q29 0 40 18t11 52v341h102v-507z" horiz-adv-x="389"/>
<glyph unicode="û" glyph-name="ucircumflex" d="M148 715h94l98 -141h-78l-67 95l-67 -95h-78zM347 0h-102v49h-2q-16 -24 -38.5 -39.5t-57.5 -15.5q-19 0 -38 6.5t-34 21.5t-24 38.5t-9 57.5v389h102v-351q0 -28 13 -44t37 -16q29 0 40 18t11 52v341h102v-507z" horiz-adv-x="389"/>
<glyph unicode="ü" glyph-name="udieresis" d="M231 688h90v-102h-90v102zM69 688h90v-102h-90v102zM347 0h-102v49h-2q-16 -24 -38.5 -39.5t-57.5 -15.5q-19 0 -38 6.5t-34 21.5t-24 38.5t-9 57.5v389h102v-351q0 -28 13 -44t37 -16q29 0 40 18t11 52v341h102v-507z" horiz-adv-x="389"/>
<glyph unicode="ý" glyph-name="yacute" d="M201 715h108l-132 -141h-66zM107 507l70 -316h2l69 316h105l-146 -595q-8 -34 -22.5 -56.5t-33.5 -36t-40.5 -19t-44.5 -5.5h-28v96h23q15 0 26 4t19.5 17.5t15.5 40t16 70.5l-139 484h108z" horiz-adv-x="352"/>
<glyph unicode="þ" glyph-name="thorn" d="M245 342q0 31 -12 50t-38 19q-23 0 -37 -17.5t-14 -45.5v-197q0 -24 14.5 -39.5t36.5 -15.5q29 0 39.5 18t10.5 42v186zM42 712h102v-251q19 22 39 37t58 15q63 0 89 -48q9 -17 13 -42t4 -67v-193q0 -55 -3 -81t-13 -42q-13 -20 -33.5 -33t-57.5 -13q-30 0 -53.5 13.5 t-40.5 38.5h-2v-251h-102v917z" horiz-adv-x="389"/>
</font>
</defs>
</svg>
